  0
SECTION
  2
HEADER
  9
$ACADVER
  1
AC1021
  9
$ACADMAINTVER
 70
     3
  9
$DWGCODEPAGE
  3
ANSI_1252
  9
$LASTSAVEDBY
  1
Chris
  9
$INSBASE
 10
0.0
 20
0.0
 30
0.0
  9
$EXTMIN
 10
-92.00000000000002
 20
-5.0
 30
0.0
  9
$EXTMAX
 10
79.0
 20
265.75
 30
0.0
  9
$LIMMIN
 10
0.0
 20
0.0
  9
$LIMMAX
 10
297.0
 20
210.0
  9
$ORTHOMODE
 70
     1
  9
$REGENMODE
 70
     1
  9
$FILLMODE
 70
     1
  9
$QTEXTMODE
 70
     0
  9
$MIRRTEXT
 70
     0
  9
$LTSCALE
 40
12.0
  9
$ATTMODE
 70
     1
  9
$TEXTSIZE
 40
3.0
  9
$TRACEWID
 40
1.0
  9
$TEXTSTYLE
  7
ISOCP
  9
$CLAYER
  8
BEMASSUNG
  9
$CELTYPE
  6
BYLAYER
  9
$CECOLOR
 62
   256
  9
$CELTSCALE
 40
1.0
  9
$DISPSILH
 70
     0
  9
$DIMSCALE
 40
1.0
  9
$DIMASZ
 40
3.5
  9
$DIMEXO
 40
0.0
  9
$DIMDLI
 40
10.0
  9
$DIMRND
 40
0.0
  9
$DIMDLE
 40
0.0
  9
$DIMEXE
 40
1.0
  9
$DIMTP
 40
0.0
  9
$DIMTM
 40
0.0
  9
$DIMTXT
 40
3.5
  9
$DIMCEN
 40
-5.0
  9
$DIMTSZ
 40
0.0
  9
$DIMTOL
 70
     0
  9
$DIMLIM
 70
     0
  9
$DIMTIH
 70
     0
  9
$DIMTOH
 70
     0
  9
$DIMSE1
 70
     0
  9
$DIMSE2
 70
     0
  9
$DIMTAD
 70
     1
  9
$DIMZIN
 70
     8
  9
$DIMBLK
  1

  9
$DIMASO
 70
     1
  9
$DIMSHO
 70
     1
  9
$DIMPOST
  1

  9
$DIMAPOST
  1

  9
$DIMALT
 70
     0
  9
$DIMALTD
 70
     2
  9
$DIMALTF
 40
25.4
  9
$DIMLFAC
 40
1.0
  9
$DIMTOFL
 70
     1
  9
$DIMTVP
 40
0.0
  9
$DIMTIX
 70
     0
  9
$DIMSOXD
 70
     0
  9
$DIMSAH
 70
     0
  9
$DIMBLK1
  1

  9
$DIMBLK2
  1

  9
$DIMSTYLE
  2
PROTECH
  9
$DIMCLRD
 70
   256
  9
$DIMCLRE
 70
   256
  9
$DIMCLRT
 70
   256
  9
$DIMTFAC
 40
0.7143000000000001
  9
$DIMGAP
 40
1.0
  9
$DIMJUST
 70
     0
  9
$DIMSD1
 70
     0
  9
$DIMSD2
 70
     0
  9
$DIMTOLJ
 70
     1
  9
$DIMTZIN
 70
     0
  9
$DIMALTZ
 70
     0
  9
$DIMALTTZ
 70
     0
  9
$DIMUPT
 70
     1
  9
$DIMDEC
 70
     2
  9
$DIMTDEC
 70
     2
  9
$DIMALTU
 70
     2
  9
$DIMALTTD
 70
     2
  9
$DIMTXSTY
  7
ISOCP
  9
$DIMAUNIT
 70
     0
  9
$DIMADEC
 70
     0
  9
$DIMALTRND
 40
0.0
  9
$DIMAZIN
 70
     0
  9
$DIMDSEP
 70
    46
  9
$DIMATFIT
 70
     3
  9
$DIMFRAC
 70
     0
  9
$DIMLDRBLK
  1

  9
$DIMLUNIT
 70
     2
  9
$DIMLWD
 70
    -2
  9
$DIMLWE
 70
    -2
  9
$DIMTMOVE
 70
     0
  9
$DIMFXL
 40
1.0
  9
$DIMFXLON
 70
     0
  9
$DIMJOGANG
 40
0.7853981633974483
  9
$DIMTFILL
 70
     0
  9
$DIMTFILLCLR
 70
     0
  9
$DIMARCSYM
 70
     0
  9
$DIMLTYPE
  6

  9
$DIMLTEX1
  6

  9
$DIMLTEX2
  6

  9
$LUNITS
 70
     2
  9
$LUPREC
 70
     2
  9
$SKETCHINC
 40
0.1
  9
$FILLETRAD
 40
1.0
  9
$AUNITS
 70
     0
  9
$AUPREC
 70
     0
  9
$MENU
  1
acad
  9
$ELEVATION
 40
0.0
  9
$PELEVATION
 40
0.0
  9
$THICKNESS
 40
0.0
  9
$LIMCHECK
 70
     0
  9
$CHAMFERA
 40
0.0
  9
$CHAMFERB
 40
0.0
  9
$CHAMFERC
 40
0.0
  9
$CHAMFERD
 40
0.0
  9
$SKPOLY
 70
     0
  9
$TDCREATE
 40
2450065.483453820
  9
$TDUCREATE
 40
2450065.400120486
  9
$TDUPDATE
 40
2455747.610494248
  9
$TDUUPDATE
 40
2455747.527160915
  9
$TDINDWG
 40
0.5498606829
  9
$TDUSRTIMER
 40
0.5498606829
  9
$USRTIMER
 70
     1
  9
$ANGBASE
 50
0.0
  9
$ANGDIR
 70
     0
  9
$PDMODE
 70
     0
  9
$PDSIZE
 40
0.0
  9
$PLINEWID
 40
0.0
  9
$SPLFRAME
 70
     0
  9
$SPLINETYPE
 70
     6
  9
$SPLINESEGS
 70
     8
  9
$HANDSEED
  5
1255
  9
$SURFTAB1
 70
     6
  9
$SURFTAB2
 70
     6
  9
$SURFTYPE
 70
     6
  9
$SURFU
 70
     6
  9
$SURFV
 70
     6
  9
$UCSBASE
  2

  9
$UCSNAME
  2

  9
$UCSORG
 10
0.0
 20
0.0
 30
0.0
  9
$UCSXDIR
 10
1.0
 20
0.0
 30
0.0
  9
$UCSYDIR
 10
0.0
 20
1.0
 30
0.0
  9
$UCSORTHOREF
  2

  9
$UCSORTHOVIEW
 70
     0
  9
$UCSORGTOP
 10
0.0
 20
0.0
 30
0.0
  9
$UCSORGBOTTOM
 10
0.0
 20
0.0
 30
0.0
  9
$UCSORGLEFT
 10
0.0
 20
0.0
 30
0.0
  9
$UCSORGRIGHT
 10
0.0
 20
0.0
 30
0.0
  9
$UCSORGFRONT
 10
0.0
 20
0.0
 30
0.0
  9
$UCSORGBACK
 10
0.0
 20
0.0
 30
0.0
  9
$PUCSBASE
  2

  9
$PUCSNAME
  2

  9
$PUCSORG
 10
0.0
 20
0.0
 30
0.0
  9
$PUCSXDIR
 10
1.0
 20
0.0
 30
0.0
  9
$PUCSYDIR
 10
0.0
 20
1.0
 30
0.0
  9
$PUCSORTHOREF
  2

  9
$PUCSORTHOVIEW
 70
     0
  9
$PUCSORGTOP
 10
0.0
 20
0.0
 30
0.0
  9
$PUCSORGBOTTOM
 10
0.0
 20
0.0
 30
0.0
  9
$PUCSORGLEFT
 10
0.0
 20
0.0
 30
0.0
  9
$PUCSORGRIGHT
 10
0.0
 20
0.0
 30
0.0
  9
$PUCSORGFRONT
 10
0.0
 20
0.0
 30
0.0
  9
$PUCSORGBACK
 10
0.0
 20
0.0
 30
0.0
  9
$USERI1
 70
     0
  9
$USERI2
 70
     0
  9
$USERI3
 70
     0
  9
$USERI4
 70
     0
  9
$USERI5
 70
     0
  9
$USERR1
 40
0.0
  9
$USERR2
 40
0.0
  9
$USERR3
 40
0.0
  9
$USERR4
 40
0.0
  9
$USERR5
 40
0.0
  9
$WORLDVIEW
 70
     1
  9
$SHADEDGE
 70
     3
  9
$SHADEDIF
 70
    70
  9
$TILEMODE
 70
     1
  9
$MAXACTVP
 70
    16
  9
$PINSBASE
 10
0.0
 20
0.0
 30
0.0
  9
$PLIMCHECK
 70
     0
  9
$PEXTMIN
 10
1.000000000000000E+20
 20
1.000000000000000E+20
 30
1.000000000000000E+20
  9
$PEXTMAX
 10
-1.000000000000000E+20
 20
-1.000000000000000E+20
 30
-1.000000000000000E+20
  9
$PLIMMIN
 10
0.0
 20
0.0
  9
$PLIMMAX
 10
12.0
 20
9.0
  9
$UNITMODE
 70
     0
  9
$VISRETAIN
 70
     0
  9
$PLINEGEN
 70
     0
  9
$PSLTSCALE
 70
     1
  9
$TREEDEPTH
 70
  3020
  9
$CMLSTYLE
  2
STANDARD
  9
$CMLJUST
 70
     0
  9
$CMLSCALE
 40
1.0
  9
$PROXYGRAPHICS
 70
     1
  9
$MEASUREMENT
 70
     0
  9
$CELWEIGHT
370
    -1
  9
$ENDCAPS
280
     0
  9
$JOINSTYLE
280
     0
  9
$LWDISPLAY
290
     0
  9
$INSUNITS
 70
     0
  9
$HYPERLINKBASE
  1

  9
$STYLESHEET
  1

  9
$XEDIT
290
     1
  9
$CEPSNTYPE
380
     0
  9
$PSTYLEMODE
290
     1
  9
$FINGERPRINTGUID
  2
{FAA86BD8-6253-427F-9DA9-2663518E4357}
  9
$VERSIONGUID
  2
{F514E57A-AC29-4F16-8325-82A47E94441C}
  9
$EXTNAMES
290
     1
  9
$PSVPSCALE
 40
0.0
  9
$OLESTARTUP
290
     0
  9
$SORTENTS
280
   127
  9
$INDEXCTL
280
     0
  9
$HIDETEXT
280
     0
  9
$XCLIPFRAME
290
     0
  9
$HALOGAP
280
     0
  9
$OBSCOLOR
 70
   257
  9
$OBSLTYPE
280
     0
  9
$INTERSECTIONDISPLAY
280
     0
  9
$INTERSECTIONCOLOR
 70
   257
  9
$DIMASSOC
280
     1
  9
$PROJECTNAME
  1

  9
$CAMERADISPLAY
290
     0
  9
$LENSLENGTH
 40
50.0
  9
$CAMERAHEIGHT
 40
0.0
  9
$STEPSPERSEC
 40
2.0
  9
$STEPSIZE
 40
6.0
  9
$3DDWFPREC
 40
2.0
  9
$PSOLWIDTH
 40
0.25
  9
$PSOLHEIGHT
 40
4.0
  9
$LOFTANG1
 40
1.570796326794896
  9
$LOFTANG2
 40
1.570796326794896
  9
$LOFTMAG1
 40
0.0
  9
$LOFTMAG2
 40
0.0
  9
$LOFTPARAM
 70
     7
  9
$LOFTNORMALS
280
     1
  9
$LATITUDE
 40
37.795
  9
$LONGITUDE
 40
-122.394
  9
$NORTHDIRECTION
 40
0.0
  9
$TIMEZONE
 70
 -8000
  9
$LIGHTGLYPHDISPLAY
280
     1
  9
$TILEMODELIGHTSYNCH
280
     1
  9
$CMATERIAL
347
6FA
  9
$SOLIDHIST
280
     1
  9
$SHOWHIST
280
     1
  9
$DWFFRAME
280
     2
  9
$DGNFRAME
280
     0
  9
$REALWORLDSCALE
290
     1
  9
$INTERFERECOLOR
 62
     1
  9
$INTERFEREOBJVS
345
707
  9
$INTERFEREVPVS
346
704
  9
$CSHADOW
280
     0
  9
$SHADOWPLANELOCATION
 40
0.0
  0
ENDSEC
  0
SECTION
  2
CLASSES
  0
CLASS
  1
ACDBDICTIONARYWDFLT
  2
AcDbDictionaryWithDefault
  3
ObjectDBX Classes
 90
        0
 91
        1
280
     0
281
     0
  0
CLASS
  1
MATERIAL
  2
AcDbMaterial
  3
ObjectDBX Classes
 90
     1153
 91
        3
280
     0
281
     0
  0
CLASS
  1
VISUALSTYLE
  2
AcDbVisualStyle
  3
ObjectDBX Classes
 90
     4095
 91
       16
280
     0
281
     0
  0
CLASS
  1
TABLESTYLE
  2
AcDbTableStyle
  3
ObjectDBX Classes
 90
     4095
 91
        1
280
     0
281
     0
  0
CLASS
  1
DICTIONARYVAR
  2
AcDbDictionaryVar
  3
ObjectDBX Classes
 90
        0
 91
        1
280
     0
281
     0
  0
CLASS
  1
SORTENTSTABLE
  2
AcDbSortentsTable
  3
ObjectDBX Classes
 90
        0
 91
        1
280
     0
281
     0
  0
ENDSEC
  0
SECTION
  2
TABLES
  0
TABLE
  2
VPORT
  5
8
330
0
100
AcDbSymbolTable
 70
     1
  0
VPORT
  5
6F8
330
8
100
AcDbSymbolTableRecord
100
AcDbViewportTableRecord
  2
*Active
 70
     0
 10
0.0
 20
0.0
 11
1.0
 21
1.0
 12
22.5
 22
128.0
 13
0.0
 23
0.0
 14
0.5
 24
0.5
 15
5.0
 25
5.0
 16
0.0
 26
0.0
 36
1.0
 17
0.0
 27
0.0
 37
0.0
 40
293.0
 41
1.425612052730696
 42
50.0
 43
0.0
 44
0.0
 50
0.0
 51
0.0
 71
     0
 72
   100
 73
     1
 74
     0
 75
     1
 76
     1
 77
     0
 78
     0
281
     0
 65
     1
110
0.0
120
0.0
130
0.0
111
1.0
121
0.0
131
0.0
112
0.0
122
1.0
132
0.0
 79
     0
146
0.0
348
703
 60
     3
 61
     5
292
     1
282
     1
141
0.0
142
0.0
 63
   250
421
  3355443
  0
ENDTAB
  0
TABLE
  2
LTYPE
  5
5
330
0
100
AcDbSymbolTable
 70
     3
  0
LTYPE
  5
14
330
5
100
AcDbSymbolTableRecord
100
AcDbLinetypeTableRecord
  2
BYBLOCK
 70
     0
  3

 72
    65
 73
     0
 40
0.0
  0
LTYPE
  5
15
330
5
100
AcDbSymbolTableRecord
100
AcDbLinetypeTableRecord
  2
BYLAYER
 70
     0
  3

 72
    65
 73
     0
 40
0.0
  0
LTYPE
  5
16
330
5
100
AcDbSymbolTableRecord
100
AcDbLinetypeTableRecord
  2
CONTINUOUS
 70
     0
  3
Solid line
 72
    65
 73
     0
 40
0.0
  0
LTYPE
  5
57
330
5
100
AcDbSymbolTableRecord
100
AcDbLinetypeTableRecord
  2
STRICHPUNKT
 70
     0
  3
__ . __ . __ . __ . __ . __ . __ . __ . __ . __
 72
    65
 73
     4
 40
0.7
 49
0.5
 74
     0
 49
-0.1
 74
     0
 49
0.0
 74
     0
 49
-0.1
 74
     0
  0
LTYPE
  5
58
330
5
100
AcDbSymbolTableRecord
100
AcDbLinetypeTableRecord
  2
VERDECKT
 70
     0
  3
_ _ _ _ _ _ _ _ _ _ _ _ _ _ _ _ _ _ _ _ _ _ _
 72
    65
 73
     2
 40
0.375
 49
0.25
 74
     0
 49
-0.125
 74
     0
  0
ENDTAB
  0
TABLE
  2
LAYER
  5
2
102
{ACAD_XDICTIONARY
360
7B0
102
}
330
0
100
AcDbSymbolTable
 70
    19
  0
LAYER
  5
F
330
2
100
AcDbSymbolTableRecord
100
AcDbLayerTableRecord
  2
0
 70
     0
 62
     7
  6
CONTINUOUS
370
    -3
390
576
347
6FC
  0
LAYER
  5
59
330
2
100
AcDbSymbolTableRecord
100
AcDbLayerTableRecord
  2
TEXT07
 70
     0
 62
   250
  6
CONTINUOUS
370
    -3
390
576
347
6FC
  0
LAYER
  5
5A
330
2
100
AcDbSymbolTableRecord
100
AcDbLayerTableRecord
  2
TEXT01
 70
     0
 62
   250
  6
CONTINUOUS
370
    -3
390
576
347
6FC
  0
LAYER
  5
5B
330
2
100
AcDbSymbolTableRecord
100
AcDbLayerTableRecord
  2
TEXT03
 70
     0
 62
   250
  6
CONTINUOUS
370
    -3
390
576
347
6FC
  0
LAYER
  5
5C
330
2
100
AcDbSymbolTableRecord
100
AcDbLayerTableRecord
  2
SCHRAFFUR
 70
     0
 62
   250
  6
CONTINUOUS
370
    -3
390
576
347
6FC
  0
LAYER
  5
5D
330
2
100
AcDbSymbolTableRecord
100
AcDbLayerTableRecord
  2
BEMASSUNG
 70
     0
 62
     1
  6
CONTINUOUS
370
    -3
390
576
347
6FC
  0
LAYER
  5
5E
330
2
100
AcDbSymbolTableRecord
100
AcDbLayerTableRecord
  2
UMRISS07
 70
     0
 62
   250
  6
CONTINUOUS
370
    -3
390
576
347
6FC
  0
LAYER
  5
5F
330
2
100
AcDbSymbolTableRecord
100
AcDbLayerTableRecord
  2
ACHSEN
 70
     0
 62
     7
  6
STRICHPUNKT
370
    -3
390
576
347
6FC
  0
LAYER
  5
60
330
2
100
AcDbSymbolTableRecord
100
AcDbLayerTableRecord
  2
AVERDECKTE
 70
     0
 62
     7
  6
VERDECKT
370
    -3
390
576
347
6FC
  0
LAYER
  5
61
330
2
100
AcDbSymbolTableRecord
100
AcDbLayerTableRecord
  2
UMRISS01
 70
     0
 62
   250
  6
CONTINUOUS
370
    -3
390
576
347
6FC
  0
LAYER
  5
62
330
2
100
AcDbSymbolTableRecord
100
AcDbLayerTableRecord
  2
UMRISS03
 70
     0
 62
   250
  6
CONTINUOUS
370
    -3
390
576
347
6FC
  0
LAYER
  5
63
330
2
100
AcDbSymbolTableRecord
100
AcDbLayerTableRecord
  2
TEXT05
 70
     0
 62
   250
  6
CONTINUOUS
370
    -3
390
576
347
6FC
  0
LAYER
  5
64
330
2
100
AcDbSymbolTableRecord
100
AcDbLayerTableRecord
  2
UMRISS05
 70
     0
 62
   250
  6
CONTINUOUS
370
    -3
390
576
347
6FC
  0
LAYER
  5
65
330
2
100
AcDbSymbolTableRecord
100
AcDbLayerTableRecord
  2
KOORDINATE
 70
     0
 62
   250
  6
CONTINUOUS
370
    -3
390
576
347
6FC
  0
LAYER
  5
186
330
2
100
AcDbSymbolTableRecord
100
AcDbLayerTableRecord
  2
025-TEXT
 70
     0
 62
   250
  6
CONTINUOUS
370
    -3
390
576
347
6FC
  0
LAYER
  5
187
330
2
100
AcDbSymbolTableRecord
100
AcDbLayerTableRecord
  2
FORM-A3
 70
     0
 62
     3
  6
CONTINUOUS
370
    -3
390
576
347
6FC
  0
LAYER
  5
1F4
330
2
100
AcDbSymbolTableRecord
100
AcDbLayerTableRecord
  2
UMRISS1
 70
     0
 62
   250
  6
CONTINUOUS
370
    -3
390
576
347
6FC
  0
LAYER
  5
22B
330
2
100
AcDbSymbolTableRecord
100
AcDbLayerTableRecord
  2
ASHADE
 70
     0
 62
   250
  6
CONTINUOUS
370
    -3
390
576
347
6FC
  0
LAYER
  5
47B
330
2
100
AcDbSymbolTableRecord
100
AcDbLayerTableRecord
  2
DEFPOINTS
 70
     0
 62
   250
  6
CONTINUOUS
290
     0
370
    -3
390
576
347
6FC
  0
ENDTAB
  0
TABLE
  2
STYLE
  5
3
330
0
100
AcDbSymbolTable
 70
     7
  0
STYLE
  5
10
330
3
100
AcDbSymbolTableRecord
100
AcDbTextStyleTableRecord
  2
STANDARD
 70
     0
 40
0.0
 41
1.0
 50
0.0
 71
     0
 42
0.2
  3
txt
  4

  0
STYLE
  5
2A
330
3
100
AcDbSymbolTableRecord
100
AcDbTextStyleTableRecord
  2
ISOCP
 70
     0
 40
0.0
 41
1.0
 50
0.0
 71
     0
 42
3.0
  3
isocp.shx
  4

  0
STYLE
  5
66
330
3
100
AcDbSymbolTableRecord
100
AcDbTextStyleTableRecord
  2
NORM
 70
     0
 40
0.0
 41
1.0
 50
0.0
 71
     0
 42
2.5
  3
simplex
  4

  0
STYLE
  5
67
330
3
100
AcDbSymbolTableRecord
100
AcDbTextStyleTableRecord
  2
FUTM-H06
 70
     0
 40
0.0
 41
0.6
 50
0.0
 71
     0
 42
7.0
  3
futm-h
  4

  0
STYLE
  5
68
330
3
100
AcDbSymbolTableRecord
100
AcDbTextStyleTableRecord
  2
FUTM-H
 70
     0
 40
0.0
 41
1.0
 50
0.0
 71
     0
 42
7.0
  3
futm-h
  4

  0
STYLE
  5
188
330
3
100
AcDbSymbolTableRecord
100
AcDbTextStyleTableRecord
  2
09D
 70
     0
 40
0.0
 41
0.9
 50
0.0
 71
     0
 42
3.0
  3
SIMPLEXD
  4

  0
STYLE
  5
228
330
3
100
AcDbSymbolTableRecord
100
AcDbTextStyleTableRecord
  2
ASHADE
 70
     0
 40
0.2
 41
1.0
 50
0.0
 71
     0
 42
4.0
  3
simplex
  4

  0
ENDTAB
  0
TABLE
  2
VIEW
  5
6
330
0
100
AcDbSymbolTable
 70
     0
  0
ENDTAB
  0
TABLE
  2
UCS
  5
7
330
0
100
AcDbSymbolTable
 70
     0
  0
ENDTAB
  0
TABLE
  2
APPID
  5
9
330
0
100
AcDbSymbolTable
 70
     7
  0
APPID
  5
11
330
9
100
AcDbSymbolTableRecord
100
AcDbRegAppTableRecord
  2
ACAD
 70
     0
  0
APPID
  5
229
330
9
100
AcDbSymbolTableRecord
100
AcDbRegAppTableRecord
  2
AVE_RENDER
 70
     0
  0
APPID
  5
22A
330
9
100
AcDbSymbolTableRecord
100
AcDbRegAppTableRecord
  2
AVE_ENTITY_MATERIAL
 70
     0
  0
APPID
  5
237
330
9
100
AcDbSymbolTableRecord
100
AcDbRegAppTableRecord
  2
AVE_FINISH
 70
     0
  0
APPID
  5
238
330
9
100
AcDbSymbolTableRecord
100
AcDbRegAppTableRecord
  2
AVE_MATERIAL
 70
     0
  0
APPID
  5
239
330
9
100
AcDbSymbolTableRecord
100
AcDbRegAppTableRecord
  2
AVE_GLOBAL
 70
     0
  0
APPID
  5
7FA
330
9
100
AcDbSymbolTableRecord
100
AcDbRegAppTableRecord
  2
ACAD_EXEMPT_FROM_CAD_STANDARDS
 70
     0
  0
ENDTAB
  0
TABLE
  2
DIMSTYLE
  5
A
330
0
100
AcDbSymbolTable
 70
     2
100
AcDbDimStyleTable
 71
     1
340
28
  0
DIMSTYLE
105
1D
330
A
100
AcDbSymbolTableRecord
100
AcDbDimStyleTableRecord
  2
STANDARD
 70
     0
 41
3.5
 42
0.0
 43
10.0
 44
1.0
 73
     0
 74
     0
 77
     1
 78
     8
140
3.5
141
5.0
147
1.0
172
     1
178
   256
271
     2
272
     2
288
     1
340
10
  0
DIMSTYLE
105
28
102
{ACAD_REACTORS
330
E65
330
E89
330
E96
330
EF4
330
F0A
330
F32
330
F4A
330
F76
330
F83
330
F90
330
FAF
330
1059
102
}
330
A
100
AcDbSymbolTableRecord
100
AcDbDimStyleTableRecord
  2
PROTECH
 70
     0
 41
3.5
 42
0.0
 43
10.0
 44
1.0
 73
     0
 74
     0
 77
     1
 78
     8
140
3.5
141
5.0
146
0.7143000000000001
147
1.0
172
     1
176
   256
177
   256
178
   256
271
     2
272
     2
288
     1
340
2A
  0
ENDTAB
  0
TABLE
  2
BLOCK_RECORD
  5
1
330
0
100
AcDbSymbolTable
 70
    35
  0
BLOCK_RECORD
  5
1A
102
{ACAD_XDICTIONARY
360
1160
102
}
330
1
100
AcDbSymbolTableRecord
100
AcDbBlockTableRecord
  2
*MODEL_SPACE
340
57B
 70
     0
280
     1
281
     0
  0
BLOCK_RECORD
  5
17
330
1
100
AcDbSymbolTableRecord
100
AcDbBlockTableRecord
  2
*PAPER_SPACE
340
57C
 70
     0
280
     1
281
     0
  0
BLOCK_RECORD
  5
2C
330
1
100
AcDbSymbolTableRecord
100
AcDbBlockTableRecord
  2
TOL
340
0
 70
     0
280
     1
281
     0
  0
BLOCK_RECORD
  5
11B
330
1
100
AcDbSymbolTableRecord
100
AcDbBlockTableRecord
  2
SOM
340
0
 70
     0
280
     1
281
     0
  0
BLOCK_RECORD
  5
189
330
1
100
AcDbSymbolTableRecord
100
AcDbBlockTableRecord
  2
BF4
340
0
 70
     0
280
     1
281
     0
  0
BLOCK_RECORD
  5
1C8
330
1
100
AcDbSymbolTableRecord
100
AcDbBlockTableRecord
  2
TO
340
0
 70
     0
280
     1
281
     0
  0
BLOCK_RECORD
  5
202
330
1
100
AcDbSymbolTableRecord
100
AcDbBlockTableRecord
  2
KOPF
340
0
 70
     0
280
     1
281
     0
  0
BLOCK_RECORD
  5
22C
330
1
100
AcDbSymbolTableRecord
100
AcDbBlockTableRecord
  2
AVE_RENDER
340
0
102
{BLKREFS
331
22F
331
230
331
231
331
232
331
233
331
234
331
235
331
236
102
}
 70
     0
280
     1
281
     0
  0
BLOCK_RECORD
  5
23A
330
1
100
AcDbSymbolTableRecord
100
AcDbBlockTableRecord
  2
AVE_GLOBAL
340
0
102
{BLKREFS
331
23D
102
}
 70
     0
280
     1
281
     0
  0
BLOCK_RECORD
  5
E66
330
1
100
AcDbSymbolTableRecord
100
AcDbBlockTableRecord
  2
*D23
340
0
 70
     0
280
     1
281
     0
  0
BLOCK_RECORD
  5
E8A
330
1
100
AcDbSymbolTableRecord
100
AcDbBlockTableRecord
  2
*D24
340
0
 70
     0
280
     1
281
     0
  0
BLOCK_RECORD
  5
E97
330
1
100
AcDbSymbolTableRecord
100
AcDbBlockTableRecord
  2
*D25
340
0
 70
     0
280
     1
281
     0
  0
BLOCK_RECORD
  5
EF5
330
1
100
AcDbSymbolTableRecord
100
AcDbBlockTableRecord
  2
*D26
340
0
 70
     0
280
     1
281
     0
  0
BLOCK_RECORD
  5
F0B
330
1
100
AcDbSymbolTableRecord
100
AcDbBlockTableRecord
  2
*D27
340
0
 70
     0
280
     1
281
     0
  0
BLOCK_RECORD
  5
F33
330
1
100
AcDbSymbolTableRecord
100
AcDbBlockTableRecord
  2
*D28
340
0
 70
     0
280
     1
281
     0
  0
BLOCK_RECORD
  5
F4B
330
1
100
AcDbSymbolTableRecord
100
AcDbBlockTableRecord
  2
*D29
340
0
 70
     0
280
     1
281
     0
  0
BLOCK_RECORD
  5
F77
330
1
100
AcDbSymbolTableRecord
100
AcDbBlockTableRecord
  2
*D30
340
0
 70
     0
280
     1
281
     0
  0
BLOCK_RECORD
  5
F84
330
1
100
AcDbSymbolTableRecord
100
AcDbBlockTableRecord
  2
*D31
340
0
 70
     0
280
     1
281
     0
  0
BLOCK_RECORD
  5
F91
330
1
100
AcDbSymbolTableRecord
100
AcDbBlockTableRecord
  2
*D32
340
0
 70
     0
280
     1
281
     0
  0
BLOCK_RECORD
  5
FB0
330
1
100
AcDbSymbolTableRecord
100
AcDbBlockTableRecord
  2
*D33
340
0
 70
     0
280
     1
281
     0
  0
BLOCK_RECORD
  5
105A
330
1
100
AcDbSymbolTableRecord
100
AcDbBlockTableRecord
  2
*D34
340
0
 70
     0
280
     1
281
     0
  0
ENDTAB
  0
ENDSEC
  0
SECTION
  2
BLOCKS
  0
BLOCK
  5
1B
330
1A
100
AcDbEntity
  8
0
100
AcDbBlockBegin
  2
*MODEL_SPACE
 70
     0
 10
0.0
 20
0.0
 30
0.0
  3
*MODEL_SPACE
  1

  0
ENDBLK
  5
1C
330
1A
100
AcDbEntity
  8
0
100
AcDbBlockEnd
  0
BLOCK
  5
18
330
17
100
AcDbEntity
 67
     1
  8
0
100
AcDbBlockBegin
  2
*PAPER_SPACE
 70
     0
 10
0.0
 20
0.0
 30
0.0
  3
*PAPER_SPACE
  1

  0
ENDBLK
  5
19
330
17
100
AcDbEntity
 67
     1
  8
0
100
AcDbBlockEnd
  0
BLOCK
  5
55
330
2C
100
AcDbEntity
  8
0
100
AcDbBlockBegin
  2
TOL
 70
     0
 10
0.0
 20
0.0
 30
0.0
  3
TOL
  1

  0
LINE
  5
2D
330
2C
100
AcDbEntity
  8
UMRISS03
100
AcDbLine
 10
104.5
 20
32.5
 30
0.0
 11
10.0
 21
32.5
 31
0.0
  0
TEXT
  5
2E
330
2C
100
AcDbEntity
  8
TEXT01
100
AcDbText
 10
12.0
 20
15.8
 30
0.0
 40
1.700009999999999
  1
spanlos bearbeitet
 41
0.9650946472798851
  7
ISOCP
 72
     5
 11
30.30168000000001
 21
15.8
 31
0.0
100
AcDbText
  0
TEXT
  5
2F
330
2C
100
AcDbEntity
  8
TEXT01
100
AcDbText
 10
12.0
 20
11.3
 30
0.0
 40
1.700009999999999
  1
Koordinatenmasse
 41
0.9351770924417692
  7
ISOCP
 72
     5
 11
29.10636
 21
11.3
 31
0.0
100
AcDbText
  0
TEXT
  5
30
330
2C
100
AcDbEntity
  8
TEXT01
100
AcDbText
 10
42.5
 20
15.8
 30
0.0
 40
1.700009999999999
  1
%%P
 41
1.704546122990723
  7
ISOCP
 72
     5
 11
44.09376
 21
15.8
 31
0.0
100
AcDbText
  0
TEXT
  5
31
330
2C
100
AcDbEntity
  8
TEXT01
100
AcDbText
 10
44.09376
 20
15.8
 30
0.0
 40
1.700009999999999
  1
 0.5
 41
1.239692532215797
  7
ISOCP
 72
     5
 11
48.29066
 21
15.8
 31
0.0
100
AcDbText
  0
TEXT
  5
32
330
2C
100
AcDbEntity
  8
TEXT01
100
AcDbText
 10
57.5
 20
15.8
 30
0.0
 40
1.700009999999999
  1
%%P
 41
1.704546122990723
  7
ISOCP
 72
     5
 11
59.09376
 21
15.8
 31
0.0
100
AcDbText
  0
TEXT
  5
33
330
2C
100
AcDbEntity
  8
TEXT01
100
AcDbText
 10
59.09376
 20
15.8
 30
0.0
 40
1.700009999999999
  1
 0.8
 41
1.298076828808997
  7
ISOCP
 72
     5
 11
63.39690999999999
 21
15.8
 31
0.0
100
AcDbText
  0
TEXT
  5
34
330
2C
100
AcDbEntity
  8
TEXT01
100
AcDbText
 10
75.0
 20
15.8
 30
0.0
 40
1.700009999999999
  1
%%P
 41
1.704546122990723
  7
ISOCP
 72
     5
 11
76.59376
 21
15.8
 31
0.0
100
AcDbText
  0
TEXT
  5
35
330
2C
100
AcDbEntity
  8
TEXT01
100
AcDbText
 10
76.59376
 20
15.8
 30
0.0
 40
1.700009999999999
  1
 1.2
 41
1.26895015815738
  7
ISOCP
 72
     5
 11
80.49846999999999
 21
15.8
 31
0.0
100
AcDbText
  0
TEXT
  5
36
330
2C
100
AcDbEntity
  8
TEXT01
100
AcDbText
 10
92.0
 20
15.8
 30
0.0
 40
1.700009999999999
  1
%%P
 41
1.704546122990723
  7
ISOCP
 72
     5
 11
93.59376000000001
 21
15.8
 31
0.0
100
AcDbText
  0
TEXT
  5
37
330
2C
100
AcDbEntity
  8
TEXT01
100
AcDbText
 10
93.59376000000001
 20
15.8
 30
0.0
 40
1.700009999999999
  1
 2.0
 41
1.297552882561247
  7
ISOCP
 72
     5
 11
97.89691000000001
 21
15.8
 31
0.0
100
AcDbText
  0
TEXT
  5
38
330
2C
100
AcDbEntity
  8
TEXT01
100
AcDbText
 10
50.0
 20
11.3
 30
0.0
 40
1.700009999999999
  1
%%P
 41
1.704546122990723
  7
ISOCP
 72
     5
 11
51.59376
 21
11.3
 31
0.0
100
AcDbText
  0
TEXT
  5
39
330
2C
100
AcDbEntity
  8
TEXT01
100
AcDbText
 10
51.59376
 20
11.3
 30
0.0
 40
1.700009999999999
  1
 0.2
 41
1.259291267951731
  7
ISOCP
 72
     5
 11
55.89690999999999
 21
11.3
 31
0.0
100
AcDbText
  0
TEXT
  5
3A
330
2C
100
AcDbEntity
  8
TEXT01
100
AcDbText
 10
85.0
 20
11.3
 30
0.0
 40
1.700009999999999
  1
%%P
 41
1.704546122990723
  7
ISOCP
 72
     5
 11
86.59375999999999
 21
11.3
 31
0.0
100
AcDbText
  0
TEXT
  5
3B
330
2C
100
AcDbEntity
  8
TEXT01
100
AcDbText
 10
86.59375999999999
 20
11.3
 30
0.0
 40
1.700009999999999
  1
 0.3
 41
1.231847162143683
  7
ISOCP
 72
     5
 11
90.7641
 21
11.3
 31
0.0
100
AcDbText
  0
TEXT
  5
3C
330
2C
100
AcDbEntity
  8
TEXT01
100
AcDbText
 10
40.49999999999999
 20
24.8
 30
0.0
 40
1.700009999999999
  1
bis 100
 41
1.078624973664906
  7
ISOCP
 72
     5
 11
47.56567000000001
 21
24.8
 31
0.0
100
AcDbText
  0
TEXT
  5
3D
330
2C
100
AcDbEntity
  8
TEXT01
100
AcDbText
 10
54.59999999999999
 20
24.8
 30
0.0
 40
1.700009999999999
  1
über 100-500
 41
1.123251095577705
  7
ISOCP
 72
     5
 11
69.20946999999999
 21
24.8
 31
0.0
100
AcDbText
  0
TEXT
  5
3E
330
2C
100
AcDbEntity
  8
TEXT01
100
AcDbText
 10
12.0
 20
29.3
 30
0.0
 40
1.700009999999999
  1
Zulässige Abweichung für Masse ohne Toleranzangabe
 41
1.034745785578847
  7
ISOCP
 72
     5
 11
68.92376999999999
 21
29.3
 31
0.0
100
AcDbText
  0
TEXT
  5
3F
330
2C
100
AcDbEntity
  8
TEXT01
100
AcDbText
 10
12.0
 20
24.8
 30
0.0
 40
1.700009999999999
  1
Grösse in mm
 41
1.117342744672503
  7
ISOCP
 72
     5
 11
26.60946999999999
 21
24.8
 31
0.0
100
AcDbText
  0
TEXT
  5
40
330
2C
100
AcDbEntity
  8
TEXT01
100
AcDbText
 10
12.0
 20
20.3
 30
0.0
 40
1.700009999999999
  1
spanhebend bearbeitet
 41
0.9592330479482265
  7
ISOCP
 72
     5
 11
34.10014000000001
 21
20.3
 31
0.0
100
AcDbText
  0
TEXT
  5
41
330
2C
100
AcDbEntity
  8
TEXT01
100
AcDbText
 10
71.29999999999999
 20
24.8
 30
0.0
 40
1.700009999999999
  1
über 500-1000
 41
1.115164785818602
  7
ISOCP
 72
     5
 11
87.13134999999999
 21
24.8
 31
0.0
100
AcDbText
  0
TEXT
  5
42
330
2C
100
AcDbEntity
  8
TEXT01
100
AcDbText
 10
42.5
 20
20.3
 30
0.0
 40
1.700009999999999
  1
%%P
 41
1.704546122990723
  7
ISOCP
 72
     5
 11
44.09376
 21
20.3
 31
0.0
100
AcDbText
  0
TEXT
  5
43
330
2C
100
AcDbEntity
  8
TEXT01
100
AcDbText
 10
44.09376
 20
20.3
 30
0.0
 40
1.700009999999999
  1
 0,2
 41
1.228726822121329
  7
ISOCP
 72
     5
 11
48.39690999999999
 21
20.3
 31
0.0
100
AcDbText
  0
TEXT
  5
44
330
2C
100
AcDbEntity
  8
TEXT01
100
AcDbText
 10
57.5
 20
20.3
 30
0.0
 40
1.700009999999999
  1
%%P
 41
1.704546122990723
  7
ISOCP
 72
     5
 11
59.09376
 21
20.3
 31
0.0
100
AcDbText
  0
TEXT
  5
45
330
2C
100
AcDbEntity
  8
TEXT01
100
AcDbText
 10
59.09376
 20
20.3
 30
0.0
 40
1.700009999999999
  1
 0.3
 41
1.231847162143687
  7
ISOCP
 72
     5
 11
63.26410000000001
 21
20.3
 31
0.0
100
AcDbText
  0
TEXT
  5
46
330
2C
100
AcDbEntity
  8
TEXT01
100
AcDbText
 10
75.0
 20
20.3
 30
0.0
 40
1.700009999999999
  1
%%P
 41
1.704546122990723
  7
ISOCP
 72
     5
 11
76.59376
 21
20.3
 31
0.0
100
AcDbText
  0
TEXT
  5
47
330
2C
100
AcDbEntity
  8
TEXT01
100
AcDbText
 10
76.59376
 20
20.3
 30
0.0
 40
1.700009999999999
  1
 0.5
 41
1.239692532215797
  7
ISOCP
 72
     5
 11
80.79066
 21
20.3
 31
0.0
100
AcDbText
  0
TEXT
  5
48
330
2C
100
AcDbEntity
  8
TEXT01
100
AcDbText
 10
92.0
 20
20.3
 30
0.0
 40
1.700009999999999
  1
%%P
 41
1.704546122990723
  7
ISOCP
 72
     5
 11
93.59376000000001
 21
20.3
 31
0.0
100
AcDbText
  0
TEXT
  5
49
330
2C
100
AcDbEntity
  8
TEXT01
100
AcDbText
 10
93.59376000000001
 20
20.3
 30
0.0
 40
1.700009999999999
  1
 0.8
 41
1.298076828809001
  7
ISOCP
 72
     5
 11
97.89691000000001
 21
20.3
 31
0.0
100
AcDbText
  0
TEXT
  5
4A
330
2C
100
AcDbEntity
  8
TEXT01
100
AcDbText
 10
90.0
 20
24.8
 30
0.0
 40
1.700009999999999
  1
über 1000
 41
1.182265163254574
  7
ISOCP
 72
     5
 11
101.15632
 21
24.8
 31
0.0
100
AcDbText
  0
LINE
  5
4B
330
2C
100
AcDbEntity
  8
UMRISS03
100
AcDbLine
 10
104.5
 20
10.0
 30
0.0
 11
104.5
 21
32.5
 31
0.0
  0
LINE
  5
4C
330
2C
100
AcDbEntity
  8
UMRISS03
100
AcDbLine
 10
104.5
 20
14.5
 30
0.0
 11
10.0
 21
14.5
 31
0.0
  0
LINE
  5
4D
330
2C
100
AcDbEntity
  8
UMRISS03
100
AcDbLine
 10
104.5
 20
19.0
 30
0.0
 11
10.0
 21
19.0
 31
0.0
  0
LINE
  5
4E
330
2C
100
AcDbEntity
  8
UMRISS03
100
AcDbLine
 10
104.5
 20
23.5
 30
0.0
 11
10.0
 21
23.5
 31
0.0
  0
LINE
  5
4F
330
2C
100
AcDbEntity
  8
UMRISS03
100
AcDbLine
 10
104.5
 20
28.0
 30
0.0
 11
10.0
 21
28.0
 31
0.0
  0
LINE
  5
50
330
2C
100
AcDbEntity
  8
UMRISS03
100
AcDbLine
 10
88.0
 20
14.5
 30
0.0
 11
88.0
 21
28.0
 31
0.0
  0
LINE
  5
51
330
2C
100
AcDbEntity
  8
UMRISS03
100
AcDbLine
 10
38.5
 20
10.0
 30
0.0
 11
38.5
 21
28.0
 31
0.0
  0
LINE
  5
52
330
2C
100
AcDbEntity
  8
UMRISS03
100
AcDbLine
 10
53.0
 20
14.5
 30
0.0
 11
53.0
 21
28.0
 31
0.0
  0
LINE
  5
53
330
2C
100
AcDbEntity
  8
UMRISS03
100
AcDbLine
 10
70.5
 20
10.0
 30
0.0
 11
70.5
 21
28.0
 31
0.0
  0
LINE
  5
54
330
2C
100
AcDbEntity
  8
UMRISS03
100
AcDbLine
 10
104.5
 20
10.0
 30
0.0
 11
10.0
 21
10.0
 31
0.0
  0
ENDBLK
  5
56
330
2C
100
AcDbEntity
  8
0
100
AcDbBlockEnd
  0
BLOCK
  5
17B
330
11B
100
AcDbEntity
  8
0
100
AcDbBlockBegin
  2
SOM
 70
     0
 10
0.0
 20
0.0
 30
0.0
  3
SOM
  1

  0
LINE
  5
11C
330
11B
100
AcDbEntity
  8
TEXT01
100
AcDbLine
 10
18.63389500000005
 20
6.513747999999999
 30
0.0
 11
19.95723399999997
 21
5.750551000000001
 31
0.0
  0
LINE
  5
11D
330
11B
100
AcDbEntity
  8
TEXT01
100
AcDbLine
 10
18.90867000000003
 20
6.990192
 30
0.0
 11
20.23200899999995
 21
6.226995000000002
 31
0.0
  0
LINE
  5
11E
330
11B
100
AcDbEntity
  8
TEXT01
100
AcDbLine
 10
18.77128300000004
 20
6.75197
 30
0.0
 11
20.09462199999996
 21
5.988773000000001
 31
0.0
  0
LINE
  5
11F
330
11B
100
AcDbEntity
  8
TEXT01
100
AcDbLine
 10
36.05838399999993
 20
8.16375
 30
0.0
 11
34.27982699999984
 21
4.121574999999999
 31
0.0
  0
LINE
  5
120
330
11B
100
AcDbEntity
  8
TEXT01
100
AcDbLine
 10
36.05838399999993
 20
8.846575000000001
 30
0.0
 11
33.85838400000011
 21
3.846575000000001
 31
0.0
  0
LINE
  5
121
330
11B
100
AcDbEntity
  8
TEXT01
100
AcDbLine
 10
36.05838399999993
 20
7.480924999999999
 30
0.0
 11
35.18526999999995
 21
5.496574999999999
 31
0.0
  0
CIRCLE
  5
122
330
11B
100
AcDbEntity
  8
TEXT01
100
AcDbCircle
 10
24.75838399999998
 20
6.346575000000001
 30
0.0
 40
3.125
  0
CIRCLE
  5
123
330
11B
100
AcDbEntity
  8
TEXT01
100
AcDbCircle
 10
24.75838399999998
 20
6.346575000000001
 30
0.0
 40
3.5
  0
CIRCLE
  5
124
330
11B
100
AcDbEntity
  8
TEXT01
100
AcDbCircle
 10
24.75838399999998
 20
6.346575000000001
 30
0.0
 40
2.75
  0
ARC
  5
125
330
11B
100
AcDbEntity
  8
TEXT01
100
AcDbCircle
 10
19.70743900000002
 20
5.317420000000002
 30
0.0
 40
1.05
100
AcDbArc
 50
356.285307
 51
60.029183
  0
LINE
  5
126
330
11B
100
AcDbEntity
  8
TEXT01
100
AcDbLine
 10
31.15838399999996
 20
4.578154000000001
 30
0.0
 11
29.62657200000001
 21
7.971707000000002
 31
0.0
  0
LINE
  5
127
330
11B
100
AcDbEntity
  8
TEXT01
100
AcDbLine
 10
32.69019600000002
 20
7.971707000000002
 30
0.0
 11
31.15838399999996
 21
4.578154000000001
 31
0.0
  0
LINE
  5
128
330
11B
100
AcDbEntity
  8
TEXT01
100
AcDbLine
 10
33.51797499999998
 20
4.121574999999999
 30
0.0
 11
32.69019600000002
 21
7.971707000000002
 31
0.0
  0
LINE
  5
129
330
11B
100
AcDbEntity
  8
TEXT01
100
AcDbLine
 10
31.15838399999996
 20
5.246574999999999
 30
0.0
 11
32.78338399999984
 21
8.846575000000001
 31
0.0
  0
LINE
  5
12A
330
11B
100
AcDbEntity
  8
TEXT01
100
AcDbLine
 10
29.53338399999996
 20
8.846575000000001
 30
0.0
 11
31.15838399999996
 21
5.246574999999999
 31
0.0
  0
LINE
  5
12B
330
11B
100
AcDbEntity
  8
TEXT01
100
AcDbLine
 10
33.85838400000011
 20
3.846575000000001
 30
0.0
 11
32.78338399999984
 21
8.846575000000001
 31
0.0
  0
LINE
  5
12C
330
11B
100
AcDbEntity
  8
TEXT01
100
AcDbLine
 10
28.45838400000003
 20
3.846575000000001
 30
0.0
 11
29.53338399999996
 21
8.846575000000001
 31
0.0
  0
LINE
  5
12D
330
11B
100
AcDbEntity
  8
TEXT01
100
AcDbLine
 10
28.79879299999993
 20
4.121574999999999
 30
0.0
 11
29.61737400000004
 21
7.928927000000001
 31
0.0
  0
LINE
  5
12E
330
11B
100
AcDbEntity
  8
TEXT01
100
AcDbLine
 10
31.15838399999996
 20
3.846575000000001
 30
0.0
 11
32.60620700000004
 21
7.054058999999998
 31
0.0
  0
LINE
  5
12F
330
11B
100
AcDbEntity
  8
TEXT01
100
AcDbLine
 10
29.71056099999998
 20
7.054058999999998
 30
0.0
 11
31.15838399999996
 21
3.846575000000001
 31
0.0
  0
LINE
  5
130
330
11B
100
AcDbEntity
  8
TEXT01
100
AcDbLine
 10
29.02095199999997
 20
3.846575000000001
 30
0.0
 11
29.71056099999998
 21
7.054058999999998
 31
0.0
  0
LINE
  5
131
330
11B
100
AcDbEntity
  8
TEXT01
100
AcDbLine
 10
33.29581600000006
 20
3.846575000000001
 30
0.0
 11
32.60620700000004
 21
7.054058999999998
 31
0.0
  0
LINE
  5
132
330
11B
100
AcDbEntity
  8
TEXT01
100
AcDbLine
 10
37.83694100000003
 20
4.121574999999999
 30
0.0
 11
36.05838399999993
 21
8.16375
 31
0.0
  0
LINE
  5
133
330
11B
100
AcDbEntity
  8
TEXT01
100
AcDbLine
 10
36.05838399999993
 20
8.846575000000001
 30
0.0
 11
38.25838399999998
 21
3.846575000000001
 31
0.0
  0
LINE
  5
134
330
11B
100
AcDbEntity
  8
TEXT01
100
AcDbLine
 10
39.95838400000002
 20
6.346575000000001
 30
0.0
 11
38.85838400000011
 21
3.846575000000001
 31
0.0
  0
LINE
  5
135
330
11B
100
AcDbEntity
  8
TEXT01
100
AcDbLine
 10
36.05838399999993
 20
7.480924999999999
 30
0.0
 11
36.93149799999992
 21
5.496574999999999
 31
0.0
  0
ARC
  5
136
330
11B
100
AcDbEntity
  8
TEXT01
100
AcDbCircle
 10
42.65838399999984
 20
5.096575000000001
 30
0.0
 40
1.25
100
AcDbArc
 50
32.204228
 51
314.427004
  0
LINE
  5
137
330
11B
100
AcDbEntity
  8
TEXT01
100
AcDbLine
 10
39.95838400000002
 20
6.346575000000001
 30
0.0
 11
41.05838399999993
 21
3.846575000000001
 31
0.0
  0
TEXT
  5
138
330
11B
100
AcDbEntity
  8
TEXT01
100
AcDbText
 10
72.3
 20
5.049606299212598
 30
0.0
 40
2.0
  1
8340 Hinwil     
  7
ISOCP
 72
     4
 11
81.0
 21
6.0
 31
0.0
100
AcDbText
  0
TEXT
  5
139
330
11B
100
AcDbEntity
  8
TEXT01
100
AcDbText
 10
69.49301133901144
 20
1.547607932520693
 30
0.0
 40
2.0
  1
Tel.: 01/938 98 88
  7
ISOCP
 72
     4
 11
80.0
 21
2.5
 31
0.0
100
AcDbText
  0
LINE
  5
13A
330
11B
100
AcDbEntity
  8
TEXT01
100
AcDbLine
 10
24.75838399999998
 20
3.221575000000001
 30
0.0
 11
43.75838399999998
 21
3.221575000000001
 31
0.0
  0
LINE
  5
13B
330
11B
100
AcDbEntity
  8
TEXT01
100
AcDbLine
 10
24.75838399999998
 20
3.596575000000001
 30
0.0
 11
43.75838399999998
 21
3.596575000000001
 31
0.0
  0
LINE
  5
13C
330
11B
100
AcDbEntity
  8
TEXT01
100
AcDbLine
 10
24.75838399999998
 20
2.846575000000001
 30
0.0
 11
43.75838399999998
 21
2.846575000000001
 31
0.0
  0
LINE
  5
13D
330
11B
100
AcDbEntity
  8
TEXT01
100
AcDbLine
 10
33.29581600000006
 20
3.846575000000001
 30
0.0
 11
33.85838400000011
 21
3.846575000000001
 31
0.0
  0
ARC
  5
13E
330
11B
100
AcDbEntity
  8
TEXT01
100
AcDbCircle
 10
19.25838399999998
 20
5.346575000000001
 30
0.0
 40
0.95
100
AcDbArc
 50
200.0
 51
287.580159
  0
ARC
  5
13F
330
11B
100
AcDbEntity
  8
TEXT01
100
AcDbCircle
 10
19.25838399999998
 20
5.346575000000001
 30
0.0
 40
1.5
100
AcDbArc
 50
200.0
 51
356.285307
  0
ARC
  5
140
330
11B
100
AcDbEntity
  8
TEXT01
100
AcDbCircle
 10
19.25838399999998
 20
5.346575000000001
 30
0.0
 40
1.225
100
AcDbArc
 50
212.972878
 51
356.285307
  0
LINE
  5
141
330
11B
100
AcDbEntity
  8
TEXT01
100
AcDbLine
 10
18.36567600000001
 20
5.021656
 30
0.0
 11
17.84884499999998
 21
4.833545
 31
0.0
  0
LINE
  5
142
330
11B
100
AcDbEntity
  8
TEXT01
100
AcDbLine
 10
18.23069699999996
 20
4.679878999999999
 30
0.0
 11
18.23069699999996
 21
4.679878999999999
 31
0.0
  0
ARC
  5
143
330
11B
100
AcDbEntity
  8
TEXT01
100
AcDbCircle
 10
19.25838399999998
 20
5.346575000000001
 30
0.0
 40
0.95
100
AcDbArc
 50
287.580159
 51
356.285307
  0
ARC
  5
144
330
11B
100
AcDbEntity
  8
TEXT01
100
AcDbCircle
 10
19.70743900000002
 20
5.317420000000002
 30
0.0
 40
0.5
100
AcDbArc
 50
356.285307
 51
60.029201
  0
ARC
  5
145
330
11B
100
AcDbEntity
  8
TEXT01
100
AcDbCircle
 10
19.70743900000002
 20
5.317420000000002
 30
0.0
 40
0.775
100
AcDbArc
 50
356.285307
 51
60.02705000000001
  0
LINE
  5
146
330
11B
100
AcDbEntity
  8
TEXT01
100
AcDbLine
 10
28.45838400000003
 20
3.846575000000001
 30
0.0
 11
29.02095199999997
 21
3.846575000000001
 31
0.0
  0
LINE
  5
147
330
11B
100
AcDbEntity
  8
TEXT01
100
AcDbLine
 10
28.79879299999993
 20
4.121574999999999
 30
0.0
 11
28.79879299999993
 21
4.121574999999999
 31
0.0
  0
LINE
  5
148
330
11B
100
AcDbEntity
  8
TEXT01
100
AcDbLine
 10
34.76382699999999
 20
5.221575000000001
 30
0.0
 11
37.3529410000001
 21
5.221575000000001
 31
0.0
  0
LINE
  5
149
330
11B
100
AcDbEntity
  8
TEXT01
100
AcDbLine
 10
35.18526999999995
 20
5.496574999999999
 30
0.0
 11
36.93149799999992
 21
5.496574999999999
 31
0.0
  0
LINE
  5
14A
330
11B
100
AcDbEntity
  8
TEXT01
100
AcDbLine
 10
34.94326999999998
 20
4.946574999999999
 30
0.0
 11
37.17349800000011
 21
4.946574999999999
 31
0.0
  0
LINE
  5
14B
330
11B
100
AcDbEntity
  8
TEXT01
100
AcDbLine
 10
33.85838400000011
 20
3.846575000000001
 30
0.0
 11
34.45927000000006
 21
3.846575000000001
 31
0.0
  0
LINE
  5
14C
330
11B
100
AcDbEntity
  8
TEXT01
100
AcDbLine
 10
34.27982699999984
 20
4.121574999999999
 30
0.0
 11
34.27982699999984
 21
4.121574999999999
 31
0.0
  0
LINE
  5
14D
330
11B
100
AcDbEntity
  8
TEXT01
100
AcDbLine
 10
33.51797499999998
 20
4.121574999999999
 30
0.0
 11
33.51797499999998
 21
4.121574999999999
 31
0.0
  0
LINE
  5
14E
330
11B
100
AcDbEntity
  8
TEXT01
100
AcDbLine
 10
34.94326999999998
 20
4.946574999999999
 30
0.0
 11
34.45927000000006
 21
3.846575000000001
 31
0.0
  0
LINE
  5
14F
330
11B
100
AcDbEntity
  8
TEXT01
100
AcDbLine
 10
39.31110600000011
 20
4.534075000000001
 30
0.0
 11
40.60566299999982
 21
4.534075000000001
 31
0.0
  0
LINE
  5
150
330
11B
100
AcDbEntity
  8
TEXT01
100
AcDbLine
 10
39.95838400000002
 20
6.005162999999999
 30
0.0
 11
39.06910599999992
 21
3.984075
 31
0.0
  0
LINE
  5
151
330
11B
100
AcDbEntity
  8
TEXT01
100
AcDbLine
 10
39.52182700000003
 20
4.671575
 30
0.0
 11
40.39494100000001
 21
4.671575
 31
0.0
  0
LINE
  5
152
330
11B
100
AcDbEntity
  8
TEXT01
100
AcDbLine
 10
39.40082699999994
 20
4.396574999999998
 30
0.0
 11
40.51594100000011
 21
4.396574999999998
 31
0.0
  0
LINE
  5
153
330
11B
100
AcDbEntity
  8
TEXT01
100
AcDbLine
 10
39.95838400000002
 20
5.66375
 30
0.0
 11
39.52182700000003
 21
4.671575
 31
0.0
  0
LINE
  5
154
330
11B
100
AcDbEntity
  8
TEXT01
100
AcDbLine
 10
39.06910599999992
 20
3.984075
 30
0.0
 11
39.06910599999992
 21
3.984075
 31
0.0
  0
LINE
  5
155
330
11B
100
AcDbEntity
  8
TEXT01
100
AcDbLine
 10
37.83694100000003
 20
4.121574999999999
 30
0.0
 11
37.83694100000003
 21
4.121574999999999
 31
0.0
  0
LINE
  5
156
330
11B
100
AcDbEntity
  8
TEXT01
100
AcDbLine
 10
39.40082699999994
 20
4.396574999999998
 30
0.0
 11
39.15882699999997
 21
3.846575000000001
 31
0.0
  0
LINE
  5
157
330
11B
100
AcDbEntity
  8
TEXT01
100
AcDbLine
 10
38.85838400000011
 20
3.846575000000001
 30
0.0
 11
39.15882699999997
 21
3.846575000000001
 31
0.0
  0
LINE
  5
158
330
11B
100
AcDbEntity
  8
TEXT01
100
AcDbLine
 10
37.65749800000004
 20
3.846575000000001
 30
0.0
 11
38.25838399999998
 21
3.846575000000001
 31
0.0
  0
LINE
  5
159
330
11B
100
AcDbEntity
  8
TEXT01
100
AcDbLine
 10
37.17349800000011
 20
4.946574999999999
 30
0.0
 11
37.65749800000004
 21
3.846575000000001
 31
0.0
  0
ARC
  5
15A
330
11B
100
AcDbEntity
  8
TEXT01
100
AcDbCircle
 10
42.65838399999984
 20
5.096575000000001
 30
0.0
 40
1.1125
100
AcDbArc
 50
50.254582
 51
323.750679
  0
ARC
  5
15B
330
11B
100
AcDbEntity
  8
TEXT01
100
AcDbCircle
 10
43.28338399999984
 20
4.638317
 30
0.0
 40
0.3375
100
AcDbArc
 50
323.750679
 51
0.0
  0
LINE
  5
15C
330
11B
100
AcDbEntity
  8
TEXT01
100
AcDbLine
 10
43.62088399999993
 20
4.859075
 30
0.0
 11
43.62088399999993
 21
4.638317
 31
0.0
  0
LINE
  5
15D
330
11B
100
AcDbEntity
  8
TEXT01
100
AcDbLine
 10
42.89588400000002
 20
4.859075
 30
0.0
 11
43.62088399999993
 21
4.859075
 31
0.0
  0
LINE
  5
15E
330
11B
100
AcDbEntity
  8
TEXT01
100
AcDbLine
 10
42.89588400000002
 20
4.859075
 30
0.0
 11
42.89588400000002
 21
4.859075
 31
0.0
  0
LINE
  5
15F
330
11B
100
AcDbEntity
  8
TEXT01
100
AcDbLine
 10
40.847663
 20
3.984075
 30
0.0
 11
39.95838400000002
 21
6.005162999999999
 31
0.0
  0
LINE
  5
160
330
11B
100
AcDbEntity
  8
TEXT01
100
AcDbLine
 10
40.847663
 20
3.984075
 30
0.0
 11
40.847663
 21
3.984075
 31
0.0
  0
LINE
  5
161
330
11B
100
AcDbEntity
  8
TEXT01
100
AcDbLine
 10
43.51923299999998
 20
5.801270000000002
 30
0.0
 11
43.51923299999998
 21
5.801270000000002
 31
0.0
  0
ARC
  5
162
330
11B
100
AcDbEntity
  8
TEXT01
100
AcDbCircle
 10
42.65838399999984
 20
5.096575000000001
 30
0.0
 40
1.1125
100
AcDbArc
 50
39.303883
 51
50.254582
  0
LINE
  5
163
330
11B
100
AcDbEntity
  8
TEXT01
100
AcDbLine
 10
40.51594100000011
 20
4.396574999999998
 30
0.0
 11
40.75794099999984
 21
3.846575000000001
 31
0.0
  0
ARC
  5
164
330
11B
100
AcDbEntity
  8
TEXT01
100
AcDbCircle
 10
42.65838399999984
 20
5.096575000000001
 30
0.0
 40
0.975
100
AcDbArc
 50
32.204228
 51
323.750679
  0
LINE
  5
165
330
11B
100
AcDbEntity
  8
TEXT01
100
AcDbLine
 10
43.48338400000011
 20
5.616189999999999
 30
0.0
 11
43.71607599999992
 21
5.762748000000001
 31
0.0
  0
LINE
  5
166
330
11B
100
AcDbEntity
  8
TEXT01
100
AcDbLine
 10
42.75838399999997
 20
4.721575000000001
 30
0.0
 11
42.75838399999997
 21
4.996574999999999
 31
0.0
  0
ARC
  5
167
330
11B
100
AcDbEntity
  8
TEXT01
100
AcDbCircle
 10
43.28338399999984
 20
4.638317
 30
0.0
 40
0.2
100
AcDbArc
 50
323.750679
 51
0.0
  0
LINE
  5
168
330
11B
100
AcDbEntity
  8
TEXT01
100
AcDbLine
 10
42.75838399999997
 20
4.721575000000001
 30
0.0
 11
43.48338400000011
 21
4.721575000000001
 31
0.0
  0
LINE
  5
169
330
11B
100
AcDbEntity
  8
TEXT01
100
AcDbLine
 10
43.48338400000011
 20
4.638317
 30
0.0
 11
43.48338400000011
 21
4.721575000000001
 31
0.0
  0
ARC
  5
16A
330
11B
100
AcDbEntity
  8
TEXT01
100
AcDbCircle
 10
43.00838399999998
 20
4.739504
 30
0.0
 40
0.75
100
AcDbArc
 50
314.427004
 51
0.0
  0
LINE
  5
16B
330
11B
100
AcDbEntity
  8
TEXT01
100
AcDbLine
 10
42.75838399999997
 20
4.996574999999999
 30
0.0
 11
43.75838399999998
 21
4.996574999999999
 31
0.0
  0
LINE
  5
16C
330
11B
100
AcDbEntity
  8
TEXT01
100
AcDbLine
 10
40.75794099999984
 20
3.846575000000001
 30
0.0
 11
41.05838399999993
 21
3.846575000000001
 31
0.0
  0
LINE
  5
16D
330
11B
100
AcDbEntity
  8
TEXT01
100
AcDbLine
 10
39.95838400000002
 20
5.66375
 30
0.0
 11
40.39494100000001
 21
4.671575
 31
0.0
  0
LINE
  5
16E
330
11B
100
AcDbEntity
  8
TEXT01
100
AcDbLine
 10
43.75838399999998
 20
4.739504
 30
0.0
 11
43.75838399999998
 21
4.996574999999999
 31
0.0
  0
TEXT
  5
16F
330
11B
100
AcDbEntity
  8
TEXT01
100
AcDbText
 10
69.94289370078739
 20
8.483861796943864
 30
0.0
 40
2.0
  1
Fabrikstrasse 6
  7
ISOCP
 72
     4
 11
79.5
 21
9.5
 31
0.0
100
AcDbText
  0
TEXT
  5
170
330
11B
100
AcDbEntity
  8
TEXT03
100
AcDbText
 10
5.212635434159437
 20
23.81168629873739
 30
0.0
 40
3.5
  1
SMD-Induktivität
  7
ISOCP
100
AcDbText
  0
TEXT
  5
171
330
11B
100
AcDbEntity
  8
TEXT03
100
AcDbText
 10
5.248924156881798
 20
12.55845135982889
 30
0.0
 40
3.5
  1
MUSTER
  7
ISOCP
100
AcDbText
  0
TEXT
  5
172
330
11B
100
AcDbEntity
  8
UMRISS07
100
AcDbText
 10
5.0
 20
17.83420045242243
 30
0.0
 40
5.0
  1
TITEL
  7
ISOCP
100
AcDbText
  0
LINE
  5
173
330
11B
100
AcDbEntity
  8
TEXT01
100
AcDbLine
 10
17.75838399999997
 20
9.471575000000001
 30
0.0
 11
23.1821940000001
 21
9.471575000000001
 31
0.0
  0
LINE
  5
174
330
11B
100
AcDbEntity
  8
TEXT01
100
AcDbLine
 10
17.75838399999997
 20
9.096575000000001
 30
0.0
 11
22.59332099999995
 21
9.096575000000001
 31
0.0
  0
LINE
  5
175
330
11B
100
AcDbEntity
  8
TEXT01
100
AcDbLine
 10
17.75838399999997
 20
9.846575000000001
 30
0.0
 11
24.75838399999998
 21
9.846575000000001
 31
0.0
  0
ARC
  5
176
330
11B
100
AcDbEntity
  8
TEXT01
100
AcDbCircle
 10
19.25838399999998
 20
7.596575000000001
 30
0.0
 40
0.7
100
AcDbArc
 50
19.997306
 51
240.02705
  0
ARC
  5
177
330
11B
100
AcDbEntity
  8
TEXT01
100
AcDbCircle
 10
19.25838399999998
 20
7.596575000000001
 30
0.0
 40
1.25
100
AcDbArc
 50
19.997597
 51
240.02705
  0
ARC
  5
178
330
11B
100
AcDbEntity
  8
TEXT01
100
AcDbCircle
 10
19.25838399999998
 20
7.596575000000001
 30
0.0
 40
0.975
100
AcDbArc
 50
36.38267000000001
 51
240.02705
  0
LINE
  5
179
330
11B
100
AcDbEntity
  8
TEXT01
100
AcDbLine
 10
19.91616900000008
 20
7.835989000000001
 30
0.0
 11
20.43299999999999
 21
8.0241
 31
0.0
  0
LINE
  5
17A
330
11B
100
AcDbEntity
  8
TEXT01
100
AcDbLine
 10
20.04332999999997
 20
8.174921000000001
 30
0.0
 11
20.04332999999997
 21
8.174921000000001
 31
0.0
  0
ENDBLK
  5
17C
330
11B
100
AcDbEntity
  8
0
100
AcDbBlockEnd
  0
BLOCK
  5
1C5
330
189
100
AcDbEntity
  8
0
100
AcDbBlockBegin
  2
BF4
 70
     0
 10
0.0
 20
0.0
 30
0.0
  3
BF4
  1

  0
TEXT
  5
18A
330
189
100
AcDbEntity
  8
025-TEXT
100
AcDbText
 10
87.3935219311441
 20
56.69381752441833
 30
0.0
 40
2.2
  1
Pos
 41
0.9
  7
09D
100
AcDbText
  0
LINE
  5
18B
330
189
100
AcDbEntity
  8
FORM-A3
100
AcDbLine
 10
0.0
 20
0.0
 30
0.0
 11
167.9999999999999
 21
0.0
 31
0.0
  0
LINE
  5
18C
330
189
100
AcDbEntity
  8
FORM-A3
 62
     4
100
AcDbLine
 10
0.0
 20
74.70000000000002
 30
0.0
 11
167.9999999999999
 21
74.70000000000002
 31
0.0
  0
LINE
  5
18D
330
189
100
AcDbEntity
  8
FORM-A3
 62
     4
100
AcDbLine
 10
0.0
 20
67.80000000000001
 30
0.0
 11
167.9999999999999
 21
67.80000000000001
 31
0.0
  0
LINE
  5
18E
330
189
100
AcDbEntity
  8
FORM-A3
 62
     4
100
AcDbLine
 10
20.47306566307145
 20
49.13034674273925
 30
0.0
 11
119.7861166470177
 21
49.13034674273925
 31
0.0
  0
LINE
  5
18F
330
189
100
AcDbEntity
  8
FORM-A3
 62
     4
100
AcDbLine
 10
20.47306566307145
 20
44.13034674273922
 30
0.0
 11
119.7861166470177
 21
44.13034674273925
 31
0.0
  0
LINE
  5
190
330
189
100
AcDbEntity
  8
FORM-A3
 62
     4
100
AcDbLine
 10
20.47306566307148
 20
14.70067724789979
 30
0.0
 11
167.9999999999999
 21
14.70067724789979
 31
0.0
  0
LINE
  5
191
330
189
100
AcDbEntity
  8
FORM-A3
 62
     4
100
AcDbLine
 10
0.0
 20
60.9
 30
0.0
 11
167.9999999999999
 21
60.9
 31
0.0
  0
LINE
  5
192
330
189
100
AcDbEntity
  8
FORM-A3
 62
     4
100
AcDbLine
 10
0.0
 20
54.30000000000004
 30
0.0
 11
167.9999999999999
 21
54.30000000000004
 31
0.0
  0
LINE
  5
193
330
189
100
AcDbEntity
  8
FORM-A3
 62
     4
100
AcDbLine
 10
-0.0000000000000284
 20
39.13338787003943
 30
0.0
 11
167.9999999999999
 21
39.13338787003943
 31
0.0
  0
LINE
  5
194
330
189
100
AcDbEntity
  8
FORM-A3
100
AcDbLine
 10
0.0
 20
257.0000000000001
 30
0.0
 11
167.9999999999999
 21
257.0000000000001
 31
0.0
  0
LINE
  5
195
330
189
100
AcDbEntity
  8
FORM-A3
100
AcDbLine
 10
0.0
 20
257.0
 30
0.0
 11
0.0
 21
-0.0000000000000284
 31
0.0
  0
LINE
  5
196
330
189
100
AcDbEntity
  8
FORM-A3
 62
     4
100
AcDbLine
 10
0.0
 20
47.90000000000006
 30
0.0
 11
20.47306566307151
 21
47.90000000000006
 31
0.0
  0
LINE
  5
197
330
189
100
AcDbEntity
  8
FORM-A3
 62
     4
100
AcDbLine
 10
6.824355221023836
 20
0.0
 30
0.0
 11
6.824355221023836
 21
54.30000000000004
 31
0.0
  0
LINE
  5
198
330
189
100
AcDbEntity
  8
FORM-A3
 62
     4
100
AcDbLine
 10
13.64871044204767
 20
0.0
 30
0.0
 11
13.64871044204767
 21
54.30000000000004
 31
0.0
  0
LINE
  5
199
330
189
100
AcDbEntity
  8
FORM-A3
 62
     4
100
AcDbLine
 10
13.64871044204767
 20
60.9
 30
0.0
 11
13.64871044204767
 21
74.70000000000002
 31
0.0
  0
LINE
  5
19A
330
189
100
AcDbEntity
  8
FORM-A3
 62
     4
100
AcDbLine
 10
6.824355221023836
 20
60.9
 30
0.0
 11
6.824355221023836
 21
74.70000000000002
 31
0.0
  0
TEXT
  5
19B
330
189
100
AcDbEntity
  8
025-TEXT
100
AcDbText
 10
3.394544609992067
 20
56.69381752441832
 30
0.0
 40
2.2
  1
Stückzahl
 41
0.9
  7
09D
100
AcDbText
  0
TEXT
  5
19C
330
189
100
AcDbEntity
  8
025-TEXT
100
AcDbText
 10
2.773623468965553
 20
50.01969425575746
 30
0.0
 40
2.0
  1
I
 41
0.9
  7
09D
100
AcDbText
  0
TEXT
  5
19D
330
189
100
AcDbEntity
  8
025-TEXT
100
AcDbText
 10
4.201859999807354
 20
50.01969425575746
 30
0.0
 40
2.0
  1
I
 41
0.9
  7
09D
100
AcDbText
  0
TEXT
  5
19E
330
189
100
AcDbEntity
  8
025-TEXT
100
AcDbText
 10
3.487316122509071
 20
50.01969425575746
 30
0.0
 40
2.0
  1
I
 41
0.9
  7
09D
100
AcDbText
  0
TEXT
  5
19F
330
189
100
AcDbEntity
  8
025-TEXT
100
AcDbText
 10
10.75253899840322
 20
50.01969425575746
 30
0.0
 40
2.0
  1
I
 41
0.9
  7
09D
100
AcDbText
  0
TEXT
  5
1A0
330
189
100
AcDbEntity
  8
025-TEXT
100
AcDbText
 10
10.03799512110494
 20
50.01969425575746
 30
0.0
 40
2.0
  1
I
 41
0.9
  7
09D
100
AcDbText
  0
TEXT
  5
1A1
330
189
100
AcDbEntity
  8
025-TEXT
100
AcDbText
 10
16.85666366107216
 20
50.01969425575746
 30
0.0
 40
2.0
  1
I
 41
0.9
  7
09D
100
AcDbText
  0
LINE
  5
1A2
330
189
100
AcDbEntity
  8
FORM-A3
 62
     4
100
AcDbLine
 10
85.0648297809524
 20
54.30000000000004
 30
0.0
 11
85.0648297809524
 21
39.13338787003943
 31
0.0
  0
LINE
  5
1A3
330
189
100
AcDbEntity
  8
FORM-A3
 62
     4
100
AcDbLine
 10
80.06089625343927
 20
54.30000000000004
 30
0.0
 11
80.06089625343927
 21
39.13338787003943
 31
0.0
  0
LINE
  5
1A4
330
189
100
AcDbEntity
  8
FORM-A3
 62
     4
100
AcDbLine
 10
65.2022195841632
 20
54.30000000000004
 30
0.0
 11
65.2022195841632
 21
39.13338787003943
 31
0.0
  0
LINE
  5
1A5
330
189
100
AcDbEntity
  8
FORM-A3
 62
     4
100
AcDbLine
 10
60.19828605664995
 20
54.30000000000004
 30
0.0
 11
60.19828605664995
 21
39.13338787003943
 31
0.0
  0
LINE
  5
1A6
330
189
100
AcDbEntity
  8
FORM-A3
 62
     4
100
AcDbLine
 10
45.339609387374
 20
54.30000000000004
 30
0.0
 11
45.339609387374
 21
39.13338787003943
 31
0.0
  0
LINE
  5
1A7
330
189
100
AcDbEntity
  8
FORM-A3
 62
     4
100
AcDbLine
 10
40.33567585986077
 20
54.30000000000004
 30
0.0
 11
40.33567585986077
 21
39.13338787003943
 31
0.0
  0
LINE
  5
1A8
330
189
100
AcDbEntity
  8
FORM-A3
 62
     4
100
AcDbLine
 10
25.47699919058477
 20
54.30000000000004
 30
0.0
 11
25.47699919058477
 21
39.13338787003943
 31
0.0
  0
LINE
  5
1A9
330
189
100
AcDbEntity
  8
FORM-A3
 62
     4
100
AcDbLine
 10
20.47306566307142
 20
0.0
 30
0.0
 11
20.47306566307151
 21
74.70000000000002
 31
0.0
  0
TEXT
  5
1AA
330
189
100
AcDbEntity
  8
025-TEXT
100
AcDbText
 10
32.76322035260196
 20
56.69381752441832
 30
0.0
 40
2.2
  1
Gegenstand und Dimension
 41
0.9
  7
09D
100
AcDbText
  0
LINE
  5
1AB
330
189
100
AcDbEntity
  8
FORM-A3
 62
     4
100
AcDbLine
 10
84.82116397287027
 20
54.30000000000004
 30
0.0
 11
84.82116397287027
 21
74.70000000000002
 31
0.0
  0
LINE
  5
1AC
330
189
100
AcDbEntity
  8
FORM-A3
100
AcDbLine
 10
167.9999999999999
 20
0.0
 30
0.0
 11
167.9999999999999
 21
257.0000000000001
 31
0.0
  0
TEXT
  5
1AD
330
189
100
AcDbEntity
  8
025-TEXT
100
AcDbText
 10
147.4752844311982
 20
55.33183883325714
 30
0.0
 40
1.399999999999999
  1
Bemerkungen
 41
0.9
  7
09D
100
AcDbText
  0
LINE
  5
1AE
330
189
100
AcDbEntity
  8
FORM-A3
 62
     4
100
AcDbLine
 10
119.7861166470177
 20
20.80885490343468
 30
0.0
 11
167.9999999999999
 21
20.80885490343468
 31
0.0
  0
LINE
  5
1AF
330
189
100
AcDbEntity
  8
FORM-A3
 62
     4
100
AcDbLine
 10
119.7861166470177
 20
26.9170325589696
 30
0.0
 11
167.9999999999999
 21
26.9170325589696
 31
0.0
  0
LINE
  5
1B0
330
189
100
AcDbEntity
  8
FORM-A3
 62
     4
100
AcDbLine
 10
119.7861166470177
 20
33.02521021450451
 30
0.0
 11
167.9999999999999
 21
33.02521021450451
 31
0.0
  0
LINE
  5
1B1
330
189
100
AcDbEntity
  8
FORM-A3
 62
     4
100
AcDbLine
 10
99.92350645022836
 20
54.30000000000004
 30
0.0
 11
99.92350645022836
 21
39.13338787003943
 31
0.0
  0
LINE
  5
1B2
330
189
100
AcDbEntity
  8
FORM-A3
 62
     4
100
AcDbLine
 10
104.9274399777416
 20
54.30000000000004
 30
0.0
 11
104.9274399777416
 21
39.13338787003943
 31
0.0
  0
LINE
  5
1B3
330
189
100
AcDbEntity
  8
FORM-A3
 62
     4
100
AcDbLine
 10
119.7861166470177
 20
54.30000000000004
 30
0.0
 11
119.7861166470177
 21
39.13338787003943
 31
0.0
  0
TEXT
  5
1B4
330
189
100
AcDbEntity
  8
025-TEXT
100
AcDbText
 10
120.6434657629694
 20
40.70099340053568
 30
0.0
 40
2.2
  1
CAD
 41
0.9
  7
09D
100
AcDbText
  0
TEXT
  5
1B5
330
189
100
AcDbEntity
  8
025-TEXT
100
AcDbText
 10
121.5008148789213
 20
16.27246419640974
 30
0.0
 40
2.0
  1
Gesehen
 41
0.9
  7
09D
100
AcDbText
  0
TEXT
  5
1B6
330
189
100
AcDbEntity
  8
025-TEXT
100
AcDbText
 10
121.5008148789213
 20
28.48881950747958
 30
0.0
 40
2.0
  1
Geprüft
 41
0.9
  7
09D
100
AcDbText
  0
TEXT
  5
1B7
330
189
100
AcDbEntity
  8
025-TEXT
100
AcDbText
 10
121.5008148789213
 20
34.59699716301449
 30
0.0
 40
2.0
  1
Gezeichnet
 41
0.9
  7
09D
100
AcDbText
  0
TEXT
  5
1B8
330
189
100
AcDbEntity
  8
025-TEXT
100
AcDbText
 10
106.0104494820232
 20
34.70380646969315
 30
0.0
 40
2.0
  1
Massstab
 41
0.9
  7
09D
100
AcDbText
  0
LINE
  5
1B9
330
189
100
AcDbEntity
  8
FORM-A3
 62
     4
100
AcDbLine
 10
104.2957512501196
 20
0.0
 30
0.0
 11
104.2957512501196
 21
39.13338787003943
 31
0.0
  0
LINE
  5
1BA
330
189
100
AcDbEntity
  8
FORM-A3
 62
     4
100
AcDbLine
 10
119.7861166470177
 20
39.13338787003943
 30
0.0
 11
119.7861166470177
 21
14.70067724789979
 31
0.0
  0
LINE
  5
1BB
330
189
100
AcDbEntity
  8
FORM-A3
 62
     4
100
AcDbLine
 10
136.9825048026642
 20
14.70067724789976
 30
0.0
 11
136.9825048026642
 21
39.13338787003943
 31
0.0
  0
LINE
  5
1BC
330
189
100
AcDbEntity
  8
FORM-A3
 62
     4
100
AcDbLine
 10
152.4823627786906
 20
14.70067724789976
 30
0.0
 11
152.4823627786906
 21
39.13338787003943
 31
0.0
  0
TEXT
  5
1BD
330
189
100
AcDbEntity
  8
025-TEXT
100
AcDbText
 10
120.6434657629694
 20
50.27460481418728
 30
0.0
 40
2.2
  1
Zusammenst.-Nr.
 41
0.9
  7
09D
100
AcDbText
  0
TEXT
  5
1BE
330
189
100
AcDbEntity
  8
025-TEXT
100
AcDbText
 10
100.7839902605923
 20
56.69381752441832
 30
0.0
 40
2.2
  1
Werkstoff
 41
0.9
  7
09D
100
AcDbText
  0
LINE
  5
1BF
330
189
100
AcDbEntity
  8
FORM-A3
 62
     4
100
AcDbLine
 10
95.78218311950442
 20
74.70000000000002
 30
0.0
 11
95.78218311950442
 21
54.30000000000004
 31
0.0
  0
LINE
  5
1C0
330
189
100
AcDbEntity
  8
FORM-A3
 62
     4
100
AcDbLine
 10
119.7861166470177
 20
74.70000000000002
 30
0.0
 11
119.7861166470177
 21
54.30000000000004
 31
0.0
  0
TEXT
  5
1C1
330
189
100
AcDbEntity
  8
025-TEXT
100
AcDbText
 10
126.752821744174
 20
55.35278184949397
 30
0.0
 40
1.399999999999999
  1
Norm-Nr.
 41
0.9
  7
09D
100
AcDbText
  0
TEXT
  5
1C2
330
189
100
AcDbEntity
  8
025-TEXT
100
AcDbText
 10
126.073343497331
 20
57.98509527075551
 30
0.0
 40
1.399999999999999
  1
Zchng.-Nr.
 41
0.9
  7
09D
100
AcDbText
  0
LINE
  5
1C3
330
189
100
AcDbEntity
  8
FORM-A3
 62
     4
100
AcDbLine
 10
144.4921199038042
 20
54.29999999999998
 30
0.0
 11
144.4921199038042
 21
74.70000000000002
 31
0.0
  0
TEXT
  5
1C4
330
189
100
AcDbEntity
  8
025-TEXT
100
AcDbText
 10
148.54612013619
 20
57.96876239793616
 30
0.0
 40
1.399999999999999
  1
Artikel-Nr.
 41
0.9
  7
09D
100
AcDbText
  0
ENDBLK
  5
1C6
330
189
100
AcDbEntity
  8
0
100
AcDbBlockEnd
  0
BLOCK
  5
1F0
330
1C8
100
AcDbEntity
  8
0
100
AcDbBlockBegin
  2
TO
 70
     0
 10
0.0
 20
0.0
 30
0.0
  3
TO
  1

  0
TEXT
  5
1C9
330
1C8
100
AcDbEntity
  8
UMRISS03
100
AcDbText
 10
2.0
 20
-3.200000000000045
 30
0.0
 40
1.700009999999999
  1
Zulässige Abweichung für Masse ohne Toleranzangabe
 41
1.034745785578847
  7
ISOCP
 72
     5
 11
58.92376999999999
 21
-3.200000000000045
 31
0.0
100
AcDbText
  0
LINE
  5
1CA
330
1C8
100
AcDbEntity
  8
UMRISS03
100
AcDbLine
 10
94.50000000000001
 20
-18.0
 30
0.0
 11
0.0
 21
-18.0
 31
0.0
  0
LINE
  5
1CB
330
1C8
100
AcDbEntity
  8
UMRISS03
100
AcDbLine
 10
94.50000000000001
 20
-13.5
 30
0.0
 11
0.0
 21
-13.5
 31
0.0
  0
LINE
  5
1CC
330
1C8
100
AcDbEntity
  8
UMRISS03
100
AcDbLine
 10
94.50000000000001
 20
-9.0
 30
0.0
 11
0.0
 21
-9.0
 31
0.0
  0
LINE
  5
1CD
330
1C8
100
AcDbEntity
  8
UMRISS03
100
AcDbLine
 10
94.50000000000001
 20
-4.5
 30
0.0
 11
0.0
 21
-4.5
 31
0.0
  0
LINE
  5
1CE
330
1C8
100
AcDbEntity
  8
UMRISS03
100
AcDbLine
 10
94.50000000000001
 20
-22.5
 30
0.0
 11
0.0
 21
-22.5
 31
0.0
  0
TEXT
  5
1CF
330
1C8
100
AcDbEntity
  8
UMRISS03
100
AcDbText
 10
2.0
 20
-21.20000000000004
 30
0.0
 40
1.700009999999999
  1
Koordinatenmasse
 41
0.9351770924417692
  7
ISOCP
 72
     5
 11
19.10635999999999
 21
-21.20000000000004
 31
0.0
100
AcDbText
  0
TEXT
  5
1D0
330
1C8
100
AcDbEntity
  8
UMRISS03
100
AcDbText
 10
2.0
 20
-16.70000000000004
 30
0.0
 40
1.700009999999999
  1
spanlos bearbeitet
 41
0.9650946472798851
  7
ISOCP
 72
     5
 11
20.30168000000001
 21
-16.70000000000004
 31
0.0
100
AcDbText
  0
TEXT
  5
1D1
330
1C8
100
AcDbEntity
  8
UMRISS03
100
AcDbText
 10
2.0
 20
-12.20000000000004
 30
0.0
 40
1.700009999999999
  1
spanhebend bearbeitet
 41
0.959233047948226
  7
ISOCP
 72
     5
 11
24.10014000000001
 21
-12.20000000000004
 31
0.0
100
AcDbText
  0
TEXT
  5
1D2
330
1C8
100
AcDbEntity
  8
UMRISS03
100
AcDbText
 10
2.0
 20
-7.700000000000045
 30
0.0
 40
1.700009999999999
  1
Grösse in mm
 41
1.117342744672503
  7
ISOCP
 72
     5
 11
16.60946999999999
 21
-7.700000000000045
 31
0.0
100
AcDbText
  0
TEXT
  5
1D3
330
1C8
100
AcDbEntity
  8
UMRISS03
100
AcDbText
 10
61.29999999999999
 20
-7.700000000000045
 30
0.0
 40
1.700009999999999
  1
über 500-1000
 41
1.115164785818602
  7
ISOCP
 72
     5
 11
77.13135
 21
-7.700000000000045
 31
0.0
100
AcDbText
  0
LINE
  5
1D4
330
1C8
100
AcDbEntity
  8
UMRISS03
100
AcDbLine
 10
28.5
 20
-22.5
 30
0.0
 11
28.5
 21
-4.5
 31
0.0
  0
LINE
  5
1D5
330
1C8
100
AcDbEntity
  8
UMRISS03
100
AcDbLine
 10
60.5
 20
-22.5
 30
0.0
 11
60.5
 21
-4.5
 31
0.0
  0
TEXT
  5
1D6
330
1C8
100
AcDbEntity
  8
UMRISS03
100
AcDbText
 10
49.09376
 20
-12.20000000000004
 30
0.0
 40
1.700009999999999
  1
 0.3
 41
1.231847162143687
  7
ISOCP
 72
     5
 11
53.26410000000001
 21
-12.20000000000004
 31
0.0
100
AcDbText
  0
TEXT
  5
1D7
330
1C8
100
AcDbEntity
  8
UMRISS03
100
AcDbText
 10
49.09376
 20
-16.70000000000004
 30
0.0
 40
1.700009999999999
  1
 0.8
 41
1.298076828808997
  7
ISOCP
 72
     5
 11
53.39690999999999
 21
-16.70000000000004
 31
0.0
100
AcDbText
  0
TEXT
  5
1D8
330
1C8
100
AcDbEntity
  8
UMRISS03
100
AcDbText
 10
44.59999999999999
 20
-7.700000000000045
 30
0.0
 40
1.700009999999999
  1
über 100-500
 41
1.123251095577703
  7
ISOCP
 72
     5
 11
59.20946999999999
 21
-7.700000000000045
 31
0.0
100
AcDbText
  0
LINE
  5
1D9
330
1C8
100
AcDbEntity
  8
UMRISS03
100
AcDbLine
 10
43.0
 20
-18.0
 30
0.0
 11
43.0
 21
-4.5
 31
0.0
  0
TEXT
  5
1DA
330
1C8
100
AcDbEntity
  8
UMRISS03
100
AcDbText
 10
32.5
 20
-12.20000000000004
 30
0.0
 40
1.700009999999999
  1
%%P
 41
1.704546122990723
  7
ISOCP
 72
     5
 11
34.09376
 21
-12.20000000000004
 31
0.0
100
AcDbText
  0
TEXT
  5
1DB
330
1C8
100
AcDbEntity
  8
UMRISS03
100
AcDbText
 10
32.5
 20
-16.70000000000004
 30
0.0
 40
1.700009999999999
  1
%%P
 41
1.704546122990723
  7
ISOCP
 72
     5
 11
34.09376
 21
-16.70000000000004
 31
0.0
100
AcDbText
  0
TEXT
  5
1DC
330
1C8
100
AcDbEntity
  8
UMRISS03
100
AcDbText
 10
34.09376
 20
-16.70000000000004
 30
0.0
 40
1.700009999999999
  1
 0.5
 41
1.239692532215797
  7
ISOCP
 72
     5
 11
38.29066
 21
-16.70000000000004
 31
0.0
100
AcDbText
  0
TEXT
  5
1DD
330
1C8
100
AcDbEntity
  8
UMRISS03
100
AcDbText
 10
34.09376
 20
-12.20000000000004
 30
0.0
 40
1.700009999999999
  1
 0,2
 41
1.228726822121329
  7
ISOCP
 72
     5
 11
38.39690999999999
 21
-12.20000000000004
 31
0.0
100
AcDbText
  0
TEXT
  5
1DE
330
1C8
100
AcDbEntity
  8
UMRISS03
100
AcDbText
 10
30.5
 20
-7.700000000000045
 30
0.0
 40
1.700009999999999
  1
bis 100
 41
1.078624973664906
  7
ISOCP
 72
     5
 11
37.56567000000001
 21
-7.700000000000045
 31
0.0
100
AcDbText
  0
TEXT
  5
1DF
330
1C8
100
AcDbEntity
  8
UMRISS03
100
AcDbText
 10
41.59376
 20
-21.20000000000004
 30
0.0
 40
1.700009999999999
  1
 0.2
 41
1.259291267951731
  7
ISOCP
 72
     5
 11
45.89690999999999
 21
-21.20000000000004
 31
0.0
100
AcDbText
  0
TEXT
  5
1E0
330
1C8
100
AcDbEntity
  8
UMRISS03
100
AcDbText
 10
47.5
 20
-12.20000000000004
 30
0.0
 40
1.700009999999999
  1
%%P
 41
1.704546122990723
  7
ISOCP
 72
     5
 11
49.09376
 21
-12.20000000000004
 31
0.0
100
AcDbText
  0
TEXT
  5
1E1
330
1C8
100
AcDbEntity
  8
UMRISS03
100
AcDbText
 10
47.5
 20
-16.70000000000004
 30
0.0
 40
1.700009999999999
  1
%%P
 41
1.704546122990723
  7
ISOCP
 72
     5
 11
49.09376
 21
-16.70000000000004
 31
0.0
100
AcDbText
  0
TEXT
  5
1E2
330
1C8
100
AcDbEntity
  8
UMRISS03
100
AcDbText
 10
40.0
 20
-21.20000000000004
 30
0.0
 40
1.700009999999999
  1
%%P
 41
1.704546122990723
  7
ISOCP
 72
     5
 11
41.59376
 21
-21.20000000000004
 31
0.0
100
AcDbText
  0
TEXT
  5
1E3
330
1C8
100
AcDbEntity
  8
UMRISS03
100
AcDbText
 10
66.59376
 20
-16.70000000000004
 30
0.0
 40
1.700009999999999
  1
 1.2
 41
1.26895015815738
  7
ISOCP
 72
     5
 11
70.49846999999999
 21
-16.70000000000004
 31
0.0
100
AcDbText
  0
TEXT
  5
1E4
330
1C8
100
AcDbEntity
  8
UMRISS03
100
AcDbText
 10
66.59376
 20
-12.20000000000004
 30
0.0
 40
1.700009999999999
  1
 0.5
 41
1.239692532215797
  7
ISOCP
 72
     5
 11
70.79066
 21
-12.20000000000004
 31
0.0
100
AcDbText
  0
TEXT
  5
1E5
330
1C8
100
AcDbEntity
  8
UMRISS03
100
AcDbText
 10
65.0
 20
-16.70000000000004
 30
0.0
 40
1.700009999999999
  1
%%P
 41
1.704546122990723
  7
ISOCP
 72
     5
 11
66.59376
 21
-16.70000000000004
 31
0.0
100
AcDbText
  0
TEXT
  5
1E6
330
1C8
100
AcDbEntity
  8
UMRISS03
100
AcDbText
 10
65.0
 20
-12.20000000000004
 30
0.0
 40
1.700009999999999
  1
%%P
 41
1.704546122990723
  7
ISOCP
 72
     5
 11
66.59376
 21
-12.20000000000004
 31
0.0
100
AcDbText
  0
TEXT
  5
1E7
330
1C8
100
AcDbEntity
  8
UMRISS03
100
AcDbText
 10
76.59376
 20
-21.20000000000004
 30
0.0
 40
1.700009999999999
  1
 0.3
 41
1.231847162143683
  7
ISOCP
 72
     5
 11
80.7641
 21
-21.20000000000004
 31
0.0
100
AcDbText
  0
LINE
  5
1E8
330
1C8
100
AcDbEntity
  8
UMRISS03
100
AcDbLine
 10
94.50000000000001
 20
-22.5
 30
0.0
 11
94.50000000000001
 21
0.0
 31
0.0
  0
LINE
  5
1E9
330
1C8
100
AcDbEntity
  8
UMRISS03
100
AcDbLine
 10
78.0
 20
-18.0
 30
0.0
 11
78.0
 21
-4.5
 31
0.0
  0
TEXT
  5
1EA
330
1C8
100
AcDbEntity
  8
UMRISS03
100
AcDbText
 10
83.59376000000001
 20
-16.70000000000004
 30
0.0
 40
1.700009999999999
  1
 2.0
 41
1.297552882561248
  7
ISOCP
 72
     5
 11
87.89691000000001
 21
-16.70000000000004
 31
0.0
100
AcDbText
  0
TEXT
  5
1EB
330
1C8
100
AcDbEntity
  8
UMRISS03
100
AcDbText
 10
80.0
 20
-7.700000000000045
 30
0.0
 40
1.700009999999999
  1
über 1000
 41
1.182265163254574
  7
ISOCP
 72
     5
 11
91.15631999999999
 21
-7.700000000000045
 31
0.0
100
AcDbText
  0
TEXT
  5
1EC
330
1C8
100
AcDbEntity
  8
UMRISS03
100
AcDbText
 10
83.59376000000001
 20
-12.20000000000004
 30
0.0
 40
1.700009999999999
  1
 0.8
 41
1.298076828809001
  7
ISOCP
 72
     5
 11
87.89691000000001
 21
-12.20000000000004
 31
0.0
100
AcDbText
  0
TEXT
  5
1ED
330
1C8
100
AcDbEntity
  8
UMRISS03
100
AcDbText
 10
75.0
 20
-21.20000000000004
 30
0.0
 40
1.700009999999999
  1
%%P
 41
1.704546122990723
  7
ISOCP
 72
     5
 11
76.59376
 21
-21.20000000000004
 31
0.0
100
AcDbText
  0
TEXT
  5
1EE
330
1C8
100
AcDbEntity
  8
UMRISS03
100
AcDbText
 10
82.0
 20
-12.20000000000004
 30
0.0
 40
1.700009999999999
  1
%%P
 41
1.704546122990723
  7
ISOCP
 72
     5
 11
83.59376000000001
 21
-12.20000000000004
 31
0.0
100
AcDbText
  0
TEXT
  5
1EF
330
1C8
100
AcDbEntity
  8
UMRISS03
100
AcDbText
 10
82.0
 20
-16.70000000000004
 30
0.0
 40
1.700009999999999
  1
%%P
 41
1.704546122990723
  7
ISOCP
 72
     5
 11
83.59376000000001
 21
-16.70000000000004
 31
0.0
100
AcDbText
  0
ENDBLK
  5
1F1
330
1C8
100
AcDbEntity
  8
0
100
AcDbBlockEnd
  0
BLOCK
  5
203
330
202
100
AcDbEntity
  8
0
100
AcDbBlockBegin
  2
KOPF
 70
     0
 10
0.0
 20
0.0
 30
0.0
  3
KOPF
  1

  0
TEXT
  5
204
330
202
100
AcDbEntity
  8
TEXT03
100
AcDbText
 10
-88.39376937621834
 20
47.78161046843672
 30
0.0
 40
3.0
  1
0
  7
ISOCP
100
AcDbText
  0
TEXT
  5
205
330
202
100
AcDbEntity
  8
TEXT03
100
AcDbText
 10
-81.05895118542566
 20
47.78161046843672
 30
0.0
 40
3.0
  1
0
  7
ISOCP
100
AcDbText
  0
TEXT
  5
206
330
202
100
AcDbEntity
  8
TEXT03
100
AcDbText
 10
-81.05895118542566
 20
18.44879925363122
 30
0.0
 40
3.0
  1
Muster
  7
ISOCP
100
AcDbText
  0
TEXT
  5
207
330
202
100
AcDbEntity
  8
UMRISS01
100
AcDbText
 10
-81.19306306074655
 20
12.02055421636958
 30
0.0
 40
4.0
  1
Muster
  7
ISOCP
100
AcDbText
  0
TEXT
  5
208
330
202
100
AcDbEntity
  8
TEXT03
100
AcDbText
 10
-14.98049888774308
 20
2.94861286944112
 30
0.0
 40
3.0
  1
Muster
  7
ISOCP
100
AcDbText
  0
TEXT
  5
209
330
202
100
AcDbEntity
  8
TEXT03
100
AcDbText
 10
-15.86056939471611
 20
47.78161046843672
 30
0.0
 40
3.0
  1
0
  7
ISOCP
100
AcDbText
  0
TEXT
  5
20A
330
202
100
AcDbEntity
  8
TEXT03
100
AcDbText
 10
-5.428828238577025
 20
47.78161046843672
 30
0.0
 40
3.0
  1
0
  7
ISOCP
100
AcDbText
  0
TEXT
  5
20B
330
202
100
AcDbEntity
  8
TEXT03
100
AcDbText
 10
42.65497922414868
 20
47.78161046843672
 30
0.0
 40
3.0
  1
0
  7
ISOCP
100
AcDbText
  0
TEXT
  5
20C
330
202
100
AcDbEntity
  8
TEXT03
100
AcDbText
 10
24.69586256969319
 20
25.89924559374741
 30
0.0
 40
2.5
  1
Muster
  7
ISOCP
100
AcDbText
  0
TEXT
  5
20D
330
202
100
AcDbEntity
  8
TEXT03
100
AcDbText
 10
34.54070902807174
 20
19.92520130023382
 30
0.0
 40
2.5
  1
00.00.00
  7
ISOCP
100
AcDbText
  0
TEXT
  5
20E
330
202
100
AcDbEntity
  8
TEXT03
100
AcDbText
 10
49.48697731648488
 20
19.92520130023382
 30
0.0
 40
2.5
  1
Griesser
  7
ISOCP
100
AcDbText
  0
TEXT
  5
20F
330
202
100
AcDbEntity
  8
TEXT03
100
AcDbText
 10
4.73767262198757
 20
13.48272020811004
 30
0.0
 40
3.0
  1
0:0
  7
ISOCP
100
AcDbText
  0
ENDBLK
  5
210
330
202
100
AcDbEntity
  8
0
100
AcDbBlockEnd
  0
BLOCK
  5
22D
330
22C
100
AcDbEntity
  8
0
100
AcDbBlockBegin
  2
AVE_RENDER
 70
     0
 10
0.0
 20
0.0
 30
0.0
  3
AVE_RENDER
  1
AVE_RENDER
  0
ENDBLK
  5
22E
330
22C
100
AcDbEntity
  8
0
100
AcDbBlockEnd
  0
BLOCK
  5
23B
330
23A
100
AcDbEntity
  8
0
100
AcDbBlockBegin
  2
AVE_GLOBAL
 70
     0
 10
0.0
 20
0.0
 30
0.0
  3
AVE_GLOBAL
  1
AVE_GLOBAL
  0
ENDBLK
  5
23C
330
23A
100
AcDbEntity
  8
0
100
AcDbBlockEnd
  0
BLOCK
  5
E70
330
E66
100
AcDbEntity
  8
0
100
AcDbBlockBegin
  2
*D23
 70
     1
 10
0.0
 20
0.0
 30
0.0
  3
*D23
  1

  0
LINE
  5
11F9
330
E66
100
AcDbEntity
  8
BEMASSUNG
370
    -2
100
AcDbLine
 10
-0.5
 20
157.5
 30
0.0
 11
-20.99999999999997
 21
157.5
 31
0.0
  0
LINE
  5
11FA
330
E66
100
AcDbEntity
  8
BEMASSUNG
370
    -2
100
AcDbLine
 10
0.0
 20
110.0
 30
0.0
 11
-20.99999999999998
 21
110.0
 31
0.0
  0
LINE
  5
11FB
330
E66
100
AcDbEntity
  8
BEMASSUNG
370
    -2
100
AcDbLine
 10
-19.99999999999997
 20
152.5
 30
0.0
 11
-19.99999999999998
 21
115.0
 31
0.0
  0
SOLID
  5
11FC
330
E66
100
AcDbEntity
  8
BEMASSUNG
100
AcDbTrace
 10
-20.8333333333333
 20
152.5
 30
0.0
 11
-19.16666666666664
 21
152.5
 31
0.0
 12
-19.99999999999997
 22
157.5
 32
0.0
 13
-19.99999999999997
 23
157.5
 33
0.0
  0
SOLID
  5
11FD
330
E66
100
AcDbEntity
  8
BEMASSUNG
100
AcDbTrace
 10
-20.83333333333332
 20
115.0
 30
0.0
 11
-19.16666666666665
 21
115.0
 31
0.0
 12
-19.99999999999998
 22
110.0
 32
0.0
 13
-19.99999999999998
 23
110.0
 33
0.0
  0
MTEXT
  5
11FE
330
E66
100
AcDbEntity
  8
BEMASSUNG
100
AcDbMText
 10
-23.5
 20
134.0
 30
0.0
 40
5.0
 41
0.0
 46
0.0
 71
     5
 72
     1
  1
\A1;48
  7
ISOCP
 11
0.0000000000000001
 21
1.0
 31
0.0
 73
     1
 44
1.0
  0
POINT
  5
11FF
330
E66
100
AcDbEntity
  8
DEFPOINTS
 62
     0
100
AcDbPoint
 10
-0.5
 20
157.5
 30
0.0
  0
POINT
  5
1200
330
E66
100
AcDbEntity
  8
DEFPOINTS
 62
     0
100
AcDbPoint
 10
0.0
 20
110.0
 30
0.0
  0
POINT
  5
1201
330
E66
100
AcDbEntity
  8
DEFPOINTS
 62
     0
100
AcDbPoint
 10
-19.99999999999998
 20
110.0
 30
0.0
  0
ENDBLK
  5
E71
330
E66
100
AcDbEntity
  8
0
100
AcDbBlockEnd
  0
BLOCK
  5
E94
330
E8A
100
AcDbEntity
  8
0
100
AcDbBlockBegin
  2
*D24
 70
     1
 10
0.0
 20
0.0
 30
0.0
  3
*D24
  1

  0
LINE
  5
1226
330
E8A
100
AcDbEntity
  8
BEMASSUNG
370
    -2
100
AcDbLine
 10
-0.5
 20
189.5
 30
0.0
 11
-30.99999999999997
 21
189.5
 31
0.0
  0
LINE
  5
1227
330
E8A
100
AcDbEntity
  8
BEMASSUNG
370
    -2
100
AcDbLine
 10
0.0
 20
110.0
 30
0.0
 11
-30.99999999999999
 21
110.0
 31
0.0
  0
LINE
  5
1228
330
E8A
100
AcDbEntity
  8
BEMASSUNG
370
    -2
100
AcDbLine
 10
-29.99999999999997
 20
184.5
 30
0.0
 11
-29.99999999999999
 21
115.0
 31
0.0
  0
SOLID
  5
1229
330
E8A
100
AcDbEntity
  8
BEMASSUNG
100
AcDbTrace
 10
-30.8333333333333
 20
184.5
 30
0.0
 11
-29.16666666666664
 21
184.5
 31
0.0
 12
-29.99999999999997
 22
189.5
 32
0.0
 13
-29.99999999999997
 23
189.5
 33
0.0
  0
SOLID
  5
122A
330
E8A
100
AcDbEntity
  8
BEMASSUNG
100
AcDbTrace
 10
-30.83333333333332
 20
115.0
 30
0.0
 11
-29.16666666666666
 21
115.0
 31
0.0
 12
-29.99999999999999
 22
110.0
 32
0.0
 13
-29.99999999999999
 23
110.0
 33
0.0
  0
MTEXT
  5
122B
330
E8A
100
AcDbEntity
  8
BEMASSUNG
100
AcDbMText
 10
-33.50000000000001
 20
150.0
 30
0.0
 40
5.0
 41
0.0
 46
0.0
 71
     5
 72
     1
  1
\A1;80
  7
ISOCP
 11
0.0000000000000001
 21
1.0
 31
0.0
 73
     1
 44
1.0
  0
POINT
  5
122C
330
E8A
100
AcDbEntity
  8
DEFPOINTS
 62
     0
100
AcDbPoint
 10
-0.5
 20
189.5
 30
0.0
  0
POINT
  5
122D
330
E8A
100
AcDbEntity
  8
DEFPOINTS
 62
     0
100
AcDbPoint
 10
0.0
 20
110.0
 30
0.0
  0
POINT
  5
122E
330
E8A
100
AcDbEntity
  8
DEFPOINTS
 62
     0
100
AcDbPoint
 10
-29.99999999999999
 20
110.0
 30
0.0
  0
ENDBLK
  5
E95
330
E8A
100
AcDbEntity
  8
0
100
AcDbBlockEnd
  0
BLOCK
  5
EA1
330
E97
100
AcDbEntity
  8
0
100
AcDbBlockBegin
  2
*D25
 70
     1
 10
0.0
 20
0.0
 30
0.0
  3
*D25
  1

  0
LINE
  5
1238
330
E97
100
AcDbEntity
  8
BEMASSUNG
370
    -2
100
AcDbLine
 10
3.0
 20
250.0
 30
0.0
 11
-40.99999999999996
 21
250.0
 31
0.0
  0
LINE
  5
1239
330
E97
100
AcDbEntity
  8
BEMASSUNG
370
    -2
100
AcDbLine
 10
0.0
 20
110.0
 30
0.0
 11
-40.99999999999999
 21
110.0
 31
0.0
  0
LINE
  5
123A
330
E97
100
AcDbEntity
  8
BEMASSUNG
370
    -2
100
AcDbLine
 10
-39.99999999999996
 20
245.0
 30
0.0
 11
-39.99999999999999
 21
115.0
 31
0.0
  0
SOLID
  5
123B
330
E97
100
AcDbEntity
  8
BEMASSUNG
100
AcDbTrace
 10
-40.83333333333329
 20
245.0
 30
0.0
 11
-39.16666666666662
 21
245.0
 31
0.0
 12
-39.99999999999996
 22
250.0
 32
0.0
 13
-39.99999999999996
 23
250.0
 33
0.0
  0
SOLID
  5
123C
330
E97
100
AcDbEntity
  8
BEMASSUNG
100
AcDbTrace
 10
-40.83333333333332
 20
115.0
 30
0.0
 11
-39.16666666666665
 21
115.0
 31
0.0
 12
-40.0
 22
110.0
 32
0.0
 13
-40.0
 23
110.0
 33
0.0
  0
MTEXT
  5
123D
330
E97
100
AcDbEntity
  8
BEMASSUNG
100
AcDbMText
 10
-43.5
 20
180.0
 30
0.0
 40
5.0
 41
0.0
 46
0.0
 71
     5
 72
     1
  1
\A1;140
  7
ISOCP
 11
0.0000000000000001
 21
1.0
 31
0.0
 73
     1
 44
1.0
  0
POINT
  5
123E
330
E97
100
AcDbEntity
  8
DEFPOINTS
 62
     0
100
AcDbPoint
 10
3.0
 20
250.0
 30
0.0
  0
POINT
  5
123F
330
E97
100
AcDbEntity
  8
DEFPOINTS
 62
     0
100
AcDbPoint
 10
0.0
 20
110.0
 30
0.0
  0
POINT
  5
1240
330
E97
100
AcDbEntity
  8
DEFPOINTS
 62
     0
100
AcDbPoint
 10
-40.0
 20
110.0
 30
0.0
  0
ENDBLK
  5
EA2
330
E97
100
AcDbEntity
  8
0
100
AcDbBlockEnd
  0
BLOCK
  5
EFF
330
EF5
100
AcDbEntity
  8
0
100
AcDbBlockBegin
  2
*D26
 70
     1
 10
0.0
 20
0.0
 30
0.0
  3
*D26
  1

  0
LINE
  5
1114
330
EF5
100
AcDbEntity
  8
BEMASSUNG
370
    -2
100
AcDbLine
 10
0.0
 20
130.0
 30
0.0
 11
-10.99999999999998
 21
130.0
 31
0.0
  0
LINE
  5
1115
330
EF5
100
AcDbEntity
  8
BEMASSUNG
370
    -2
100
AcDbLine
 10
0.0
 20
110.0
 30
0.0
 11
-10.99999999999998
 21
110.0
 31
0.0
  0
LINE
  5
1116
330
EF5
100
AcDbEntity
  8
BEMASSUNG
370
    -2
100
AcDbLine
 10
-9.999999999999978
 20
125.0
 30
0.0
 11
-9.999999999999982
 21
115.0
 31
0.0
  0
SOLID
  5
1117
330
EF5
100
AcDbEntity
  8
BEMASSUNG
100
AcDbTrace
 10
-10.83333333333331
 20
125.0
 30
0.0
 11
-9.166666666666644
 21
125.0
 31
0.0
 12
-9.999999999999978
 22
130.0
 32
0.0
 13
-9.999999999999978
 23
130.0
 33
0.0
  0
SOLID
  5
1118
330
EF5
100
AcDbEntity
  8
BEMASSUNG
100
AcDbTrace
 10
-10.83333333333331
 20
115.0
 30
0.0
 11
-9.166666666666648
 21
115.0
 31
0.0
 12
-9.999999999999982
 22
110.0
 32
0.0
 13
-9.999999999999982
 23
110.0
 33
0.0
  0
MTEXT
  5
1119
330
EF5
100
AcDbEntity
  8
BEMASSUNG
100
AcDbMText
 10
-13.50049212598425
 20
119.0
 30
0.0
 40
5.0
 41
0.0
 46
0.0
 71
     5
 72
     1
  1
\A1;20
  7
ISOCP
 11
0.0000000000000001
 21
1.0
 31
0.0
 73
     1
 44
1.0
  0
POINT
  5
111A
330
EF5
100
AcDbEntity
  8
DEFPOINTS
 62
     0
100
AcDbPoint
 10
0.0
 20
130.0
 30
0.0
  0
POINT
  5
111B
330
EF5
100
AcDbEntity
  8
DEFPOINTS
 62
     0
100
AcDbPoint
 10
0.0
 20
110.0
 30
0.0
  0
POINT
  5
111C
330
EF5
100
AcDbEntity
  8
DEFPOINTS
 62
     0
100
AcDbPoint
 10
-9.999999999999982
 20
110.0
 30
0.0
  0
ENDBLK
  5
F00
330
EF5
100
AcDbEntity
  8
0
100
AcDbBlockEnd
  0
BLOCK
  5
F15
330
F0B
100
AcDbEntity
  8
0
100
AcDbBlockBegin
  2
*D27
 70
     1
 10
0.0
 20
0.0
 30
0.0
  3
*D27
  1

  0
LINE
  5
10DC
330
F0B
100
AcDbEntity
  8
BEMASSUNG
370
    -2
100
AcDbLine
 10
3.0
 20
250.0
 30
0.0
 11
3.0
 21
261.0
 31
0.0
  0
LINE
  5
10DD
330
F0B
100
AcDbEntity
  8
BEMASSUNG
370
    -2
100
AcDbLine
 10
71.0
 20
250.0
 30
0.0
 11
71.0
 21
261.0
 31
0.0
  0
LINE
  5
10DE
330
F0B
100
AcDbEntity
  8
BEMASSUNG
370
    -2
100
AcDbLine
 10
8.0
 20
260.0
 30
0.0
 11
66.0
 21
260.0
 31
0.0
  0
SOLID
  5
10DF
330
F0B
100
AcDbEntity
  8
BEMASSUNG
100
AcDbTrace
 10
8.0
 20
260.8333333333333
 30
0.0
 11
8.0
 21
259.1666666666667
 31
0.0
 12
3.0
 22
260.0
 32
0.0
 13
3.0
 23
260.0
 33
0.0
  0
SOLID
  5
10E0
330
F0B
100
AcDbEntity
  8
BEMASSUNG
100
AcDbTrace
 10
66.0
 20
260.8333333333333
 30
0.0
 11
66.0
 21
259.1666666666667
 31
0.0
 12
71.0
 22
260.0
 32
0.0
 13
71.0
 23
260.0
 33
0.0
  0
MTEXT
  5
10E1
330
F0B
100
AcDbEntity
  8
BEMASSUNG
100
AcDbMText
 10
36.0
 20
263.5
 30
0.0
 40
5.0
 41
0.0
 46
0.0
 71
     5
 72
     1
  1
\A1;68
  7
ISOCP
 73
     1
 44
1.0
  0
POINT
  5
10E2
330
F0B
100
AcDbEntity
  8
DEFPOINTS
 62
     0
100
AcDbPoint
 10
3.0
 20
250.0
 30
0.0
  0
POINT
  5
10E3
330
F0B
100
AcDbEntity
  8
DEFPOINTS
 62
     0
100
AcDbPoint
 10
71.0
 20
250.0
 30
0.0
  0
POINT
  5
10E4
330
F0B
100
AcDbEntity
  8
DEFPOINTS
 62
     0
100
AcDbPoint
 10
71.0
 20
260.0
 30
0.0
  0
ENDBLK
  5
F16
330
F0B
100
AcDbEntity
  8
0
100
AcDbBlockEnd
  0
BLOCK
  5
F3E
330
F33
100
AcDbEntity
  8
0
100
AcDbBlockBegin
  2
*D28
 70
     1
 10
0.0
 20
0.0
 30
0.0
  3
*D28
  1

  0
LINE
  5
11E5
330
F33
100
AcDbEntity
  8
BEMASSUNG
370
    -2
100
AcDbLine
 10
4.5
 20
196.5
 30
0.0
 11
-0.9999999999999687
 21
196.5
 31
0.0
  0
LINE
  5
11E6
330
F33
100
AcDbEntity
  8
BEMASSUNG
370
    -2
100
AcDbLine
 10
4.5
 20
182.5
 30
0.0
 11
-0.9999999999999719
 21
182.5
 31
0.0
  0
LINE
  5
11E7
330
F33
100
AcDbEntity
  8
BEMASSUNG
370
    -2
100
AcDbLine
 10
0.0000000000000289
 20
187.5
 30
0.0
 11
0.0000000000000298
 21
191.5
 31
0.0
  0
LINE
  5
11E8
330
F33
100
AcDbEntity
  8
BEMASSUNG
370
    -2
100
AcDbLine
 10
0.0000000000000309
 20
196.5
 30
0.0
 11
0.0000000000000351
 21
215.5
 31
0.0
  0
SOLID
  5
11E9
330
F33
100
AcDbEntity
  8
BEMASSUNG
100
AcDbTrace
 10
-0.8333333333333044
 20
187.5
 30
0.0
 11
0.8333333333333621
 21
187.5
 31
0.0
 12
0.0000000000000278
 22
182.5
 32
0.0
 13
0.0000000000000278
 23
182.5
 33
0.0
  0
SOLID
  5
11EA
330
F33
100
AcDbEntity
  8
BEMASSUNG
100
AcDbTrace
 10
-0.8333333333333035
 20
191.5
 30
0.0
 11
0.833333333333363
 21
191.5
 31
0.0
 12
0.0000000000000309
 22
196.5
 32
0.0
 13
0.0000000000000309
 23
196.5
 33
0.0
  0
MTEXT
  5
11EB
330
F33
100
AcDbEntity
  8
BEMASSUNG
100
AcDbMText
 10
-3.5
 20
208.5
 30
0.0
 40
5.0
 41
0.0
 46
0.0
 71
     5
 72
     1
  1
\A1;1/4''
  7
ISOCP
 11
0.0000000000000001
 21
1.0
 31
0.0
 73
     1
 44
1.0
  0
POINT
  5
11EC
330
F33
100
AcDbEntity
  8
DEFPOINTS
 62
     0
100
AcDbPoint
 10
4.5
 20
196.5
 30
0.0
  0
POINT
  5
11ED
330
F33
100
AcDbEntity
  8
DEFPOINTS
 62
     0
100
AcDbPoint
 10
4.5
 20
182.5
 30
0.0
  0
POINT
  5
11EE
330
F33
100
AcDbEntity
  8
DEFPOINTS
 62
     0
100
AcDbPoint
 10
0.0000000000000278
 20
182.5
 30
0.0
  0
ENDBLK
  5
F3F
330
F33
100
AcDbEntity
  8
0
100
AcDbBlockEnd
  0
BLOCK
  5
F56
330
F4B
100
AcDbEntity
  8
0
100
AcDbBlockBegin
  2
*D29
 70
     1
 10
0.0
 20
0.0
 30
0.0
  3
*D29
  1

  0
LINE
  5
124B
330
F4B
100
AcDbEntity
  8
BEMASSUNG
370
    -2
100
AcDbLine
 10
4.5
 20
164.5
 30
0.0
 11
-0.999999999999974
 21
164.5
 31
0.0
  0
LINE
  5
124C
330
F4B
100
AcDbEntity
  8
BEMASSUNG
370
    -2
100
AcDbLine
 10
4.5
 20
150.5
 30
0.0
 11
-0.9999999999999772
 21
150.5
 31
0.0
  0
LINE
  5
124D
330
F4B
100
AcDbEntity
  8
BEMASSUNG
370
    -2
100
AcDbLine
 10
0.0000000000000243
 20
155.5
 30
0.0
 11
0.0000000000000252
 21
159.5
 31
0.0
  0
LINE
  5
124E
330
F4B
100
AcDbEntity
  8
BEMASSUNG
370
    -2
100
AcDbLine
 10
0.0000000000000263
 20
164.5
 30
0.0
 11
0.0000000000000305
 21
183.5
 31
0.0
  0
SOLID
  5
124F
330
F4B
100
AcDbEntity
  8
BEMASSUNG
100
AcDbTrace
 10
-0.833333333333309
 20
155.5
 30
0.0
 11
0.8333333333333577
 21
155.5
 31
0.0
 12
0.0000000000000232
 22
150.5
 32
0.0
 13
0.0000000000000232
 23
150.5
 33
0.0
  0
SOLID
  5
1250
330
F4B
100
AcDbEntity
  8
BEMASSUNG
100
AcDbTrace
 10
-0.8333333333333081
 20
159.5
 30
0.0
 11
0.8333333333333586
 21
159.5
 31
0.0
 12
0.0000000000000263
 22
164.5
 32
0.0
 13
0.0000000000000263
 23
164.5
 33
0.0
  0
MTEXT
  5
1251
330
F4B
100
AcDbEntity
  8
BEMASSUNG
100
AcDbMText
 10
-3.499999999999999
 20
176.5
 30
0.0
 40
5.0
 41
0.0
 46
0.0
 71
     5
 72
     1
  1
\A1;1/4''
  7
ISOCP
 11
0.0000000000000001
 21
1.0
 31
0.0
 73
     1
 44
1.0
  0
POINT
  5
1252
330
F4B
100
AcDbEntity
  8
DEFPOINTS
 62
     0
100
AcDbPoint
 10
4.5
 20
164.5
 30
0.0
  0
POINT
  5
1253
330
F4B
100
AcDbEntity
  8
DEFPOINTS
 62
     0
100
AcDbPoint
 10
4.5
 20
150.5
 30
0.0
  0
POINT
  5
1254
330
F4B
100
AcDbEntity
  8
DEFPOINTS
 62
     0
100
AcDbPoint
 10
0.0000000000000232
 20
150.5
 30
0.0
  0
ENDBLK
  5
F57
330
F4B
100
AcDbEntity
  8
0
100
AcDbBlockEnd
  0
BLOCK
  5
F81
330
F77
100
AcDbEntity
  8
0
100
AcDbBlockBegin
  2
*D30
 70
     1
 10
0.0
 20
0.0
 30
0.0
  3
*D30
  1

  0
LINE
  5
1126
330
F77
100
AcDbEntity
  8
BEMASSUNG
370
    -2
100
AcDbLine
 10
74.0
 20
110.0
 30
0.0
 11
74.0
 21
84.0
 31
0.0
  0
LINE
  5
1127
330
F77
100
AcDbEntity
  8
BEMASSUNG
370
    -2
100
AcDbLine
 10
0.0
 20
110.0
 30
0.0
 11
-0.0000000000000016
 21
84.0
 31
0.0
  0
LINE
  5
1128
330
F77
100
AcDbEntity
  8
BEMASSUNG
370
    -2
100
AcDbLine
 10
69.0
 20
85.0
 30
0.0
 11
4.999999999999998
 21
85.0
 31
0.0
  0
SOLID
  5
1129
330
F77
100
AcDbEntity
  8
BEMASSUNG
100
AcDbTrace
 10
69.0
 20
85.83333333333333
 30
0.0
 11
69.0
 21
84.16666666666667
 31
0.0
 12
74.0
 22
85.0
 32
0.0
 13
74.0
 23
85.0
 33
0.0
  0
SOLID
  5
112A
330
F77
100
AcDbEntity
  8
BEMASSUNG
100
AcDbTrace
 10
4.999999999999998
 20
85.83333333333333
 30
0.0
 11
4.999999999999998
 21
84.16666666666667
 31
0.0
 12
-0.0000000000000015
 22
85.0
 32
0.0
 13
-0.0000000000000015
 23
85.0
 33
0.0
  0
MTEXT
  5
112B
330
F77
100
AcDbEntity
  8
BEMASSUNG
100
AcDbMText
 10
37.0
 20
88.49999999999999
 30
0.0
 40
5.0
 41
0.0
 46
0.0
 71
     5
 72
     1
  1
\A1;74
  7
ISOCP
 73
     1
 44
1.0
  0
POINT
  5
112C
330
F77
100
AcDbEntity
  8
DEFPOINTS
 62
     0
100
AcDbPoint
 10
74.0
 20
110.0
 30
0.0
  0
POINT
  5
112D
330
F77
100
AcDbEntity
  8
DEFPOINTS
 62
     0
100
AcDbPoint
 10
0.0
 20
110.0
 30
0.0
  0
POINT
  5
112E
330
F77
100
AcDbEntity
  8
DEFPOINTS
 62
     0
100
AcDbPoint
 10
-0.0000000000000015
 20
85.0
 30
0.0
  0
ENDBLK
  5
F82
330
F77
100
AcDbEntity
  8
0
100
AcDbBlockEnd
  0
BLOCK
  5
F8E
330
F84
100
AcDbEntity
  8
0
100
AcDbBlockBegin
  2
*D31
 70
     1
 10
0.0
 20
0.0
 30
0.0
  3
*D31
  1

  0
LINE
  5
1138
330
F84
100
AcDbEntity
  8
BEMASSUNG
370
    -2
100
AcDbLine
 10
-5.0
 20
62.5
 30
0.0
 11
-20.99999999999999
 21
62.5
 31
0.0
  0
LINE
  5
1139
330
F84
100
AcDbEntity
  8
BEMASSUNG
370
    -2
100
AcDbLine
 10
-5.0
 20
11.5
 30
0.0
 11
-21.0
 21
11.5
 31
0.0
  0
LINE
  5
113A
330
F84
100
AcDbEntity
  8
BEMASSUNG
370
    -2
100
AcDbLine
 10
-19.99999999999999
 20
57.5
 30
0.0
 11
-20.0
 21
16.5
 31
0.0
  0
SOLID
  5
113B
330
F84
100
AcDbEntity
  8
BEMASSUNG
100
AcDbTrace
 10
-20.83333333333332
 20
57.5
 30
0.0
 11
-19.16666666666666
 21
57.5
 31
0.0
 12
-19.99999999999999
 22
62.5
 32
0.0
 13
-19.99999999999999
 23
62.5
 33
0.0
  0
SOLID
  5
113C
330
F84
100
AcDbEntity
  8
BEMASSUNG
100
AcDbTrace
 10
-20.83333333333333
 20
16.5
 30
0.0
 11
-19.16666666666667
 21
16.5
 31
0.0
 12
-20.0
 22
11.5
 32
0.0
 13
-20.0
 23
11.5
 33
0.0
  0
MTEXT
  5
113D
330
F84
100
AcDbEntity
  8
BEMASSUNG
100
AcDbMText
 10
-23.5
 20
37.0
 30
0.0
 40
5.0
 41
0.0
 46
0.0
 71
     5
 72
     1
  1
\A1;51
  7
ISOCP
 11
0.0000000000000001
 21
1.0
 31
0.0
 73
     1
 44
1.0
  0
POINT
  5
113E
330
F84
100
AcDbEntity
  8
DEFPOINTS
 62
     0
100
AcDbPoint
 10
-5.0
 20
62.5
 30
0.0
  0
POINT
  5
113F
330
F84
100
AcDbEntity
  8
DEFPOINTS
 62
     0
100
AcDbPoint
 10
-5.0
 20
11.5
 30
0.0
  0
POINT
  5
1140
330
F84
100
AcDbEntity
  8
DEFPOINTS
 62
     0
100
AcDbPoint
 10
-20.0
 20
11.5
 30
0.0
  0
ENDBLK
  5
F8F
330
F84
100
AcDbEntity
  8
0
100
AcDbBlockEnd
  0
BLOCK
  5
F9B
330
F91
100
AcDbEntity
  8
0
100
AcDbBlockBegin
  2
*D32
 70
     1
 10
0.0
 20
0.0
 30
0.0
  3
*D32
  1

  0
LINE
  5
112F
330
F91
100
AcDbEntity
  8
BEMASSUNG
370
    -2
100
AcDbLine
 10
0.0
 20
74.0
 30
0.0
 11
-30.99999999999999
 21
74.0
 31
0.0
  0
LINE
  5
1130
330
F91
100
AcDbEntity
  8
BEMASSUNG
370
    -2
100
AcDbLine
 10
0.0
 20
0.0
 30
0.0
 11
-31.0
 21
0.0000000000000088
 31
0.0
  0
LINE
  5
1131
330
F91
100
AcDbEntity
  8
BEMASSUNG
370
    -2
100
AcDbLine
 10
-29.99999999999999
 20
69.0
 30
0.0
 11
-30.0
 21
5.000000000000008
 31
0.0
  0
SOLID
  5
1132
330
F91
100
AcDbEntity
  8
BEMASSUNG
100
AcDbTrace
 10
-30.83333333333332
 20
69.0
 30
0.0
 11
-29.16666666666666
 21
69.0
 31
0.0
 12
-29.99999999999999
 22
74.0
 32
0.0
 13
-29.99999999999999
 23
74.0
 33
0.0
  0
SOLID
  5
1133
330
F91
100
AcDbEntity
  8
BEMASSUNG
100
AcDbTrace
 10
-30.83333333333334
 20
5.000000000000008
 30
0.0
 11
-29.16666666666667
 21
5.000000000000007
 31
0.0
 12
-30.0
 22
0.0000000000000085
 32
0.0
 13
-30.0
 23
0.0000000000000085
 33
0.0
  0
MTEXT
  5
1134
330
F91
100
AcDbEntity
  8
BEMASSUNG
100
AcDbMText
 10
-33.5
 20
37.0
 30
0.0
 40
5.0
 41
0.0
 46
0.0
 71
     5
 72
     1
  1
\A1;74
  7
ISOCP
 11
0.0000000000000001
 21
1.0
 31
0.0
 73
     1
 44
1.0
  0
POINT
  5
1135
330
F91
100
AcDbEntity
  8
DEFPOINTS
 62
     0
100
AcDbPoint
 10
0.0
 20
74.0
 30
0.0
  0
POINT
  5
1136
330
F91
100
AcDbEntity
  8
DEFPOINTS
 62
     0
100
AcDbPoint
 10
0.0
 20
0.0
 30
0.0
  0
POINT
  5
1137
330
F91
100
AcDbEntity
  8
DEFPOINTS
 62
     0
100
AcDbPoint
 10
-30.0
 20
0.0000000000000085
 30
0.0
  0
ENDBLK
  5
F9C
330
F91
100
AcDbEntity
  8
0
100
AcDbBlockEnd
  0
BLOCK
  5
FBB
330
FB0
100
AcDbEntity
  8
0
100
AcDbBlockBegin
  2
*D33
 70
     1
 10
0.0
 20
0.0
 30
0.0
  3
*D33
  1

  0
LINE
  5
1141
330
FB0
100
AcDbEntity
  8
BEMASSUNG
370
    -2
100
AcDbLine
 10
11.5
 20
68.00000000000001
 30
0.0
 11
-10.99999999999998
 21
68.00000000000001
 31
0.0
  0
LINE
  5
1142
330
FB0
100
AcDbEntity
  8
BEMASSUNG
370
    -2
100
AcDbLine
 10
11.5
 20
57.0
 30
0.0
 11
-10.99999999999999
 21
57.0
 31
0.0
  0
LINE
  5
1143
330
FB0
100
AcDbEntity
  8
BEMASSUNG
370
    -2
100
AcDbLine
 10
-9.999999999999987
 20
73.00000000000001
 30
0.0
 11
-9.999999999999985
 21
78.00000000000001
 31
0.0
  0
LINE
  5
1144
330
FB0
100
AcDbEntity
  8
BEMASSUNG
370
    -2
100
AcDbLine
 10
-9.999999999999992
 20
52.0
 30
0.0
 11
-9.999999999999994
 21
41.5
 31
0.0
  0
LINE
  5
1145
330
FB0
100
AcDbEntity
  8
BEMASSUNG
370
    -2
100
AcDbLine
 10
-9.999999999999987
 20
68.00000000000001
 30
0.0
 11
-9.999999999999991
 21
57.0
 31
0.0
  0
SOLID
  5
1146
330
FB0
100
AcDbEntity
  8
BEMASSUNG
100
AcDbTrace
 10
-10.83333333333332
 20
73.00000000000001
 30
0.0
 11
-9.166666666666653
 21
73.00000000000001
 31
0.0
 12
-9.999999999999987
 22
68.00000000000001
 32
0.0
 13
-9.999999999999987
 23
68.00000000000001
 33
0.0
  0
SOLID
  5
1147
330
FB0
100
AcDbEntity
  8
BEMASSUNG
100
AcDbTrace
 10
-10.83333333333332
 20
52.0
 30
0.0
 11
-9.166666666666657
 21
52.0
 31
0.0
 12
-9.999999999999991
 22
57.0
 32
0.0
 13
-9.999999999999991
 23
57.0
 33
0.0
  0
MTEXT
  5
1148
330
FB0
100
AcDbEntity
  8
BEMASSUNG
100
AcDbMText
 10
-13.5
 20
44.24999999999999
 30
0.0
 40
5.0
 41
0.0
 46
0.0
 71
     5
 72
     1
  1
\A1;11
  7
ISOCP
 11
0.0000000000000001
 21
1.0
 31
0.0
 73
     1
 44
1.0
  0
POINT
  5
1149
330
FB0
100
AcDbEntity
  8
DEFPOINTS
 62
     0
100
AcDbPoint
 10
11.5
 20
68.00000000000001
 30
0.0
  0
POINT
  5
114A
330
FB0
100
AcDbEntity
  8
DEFPOINTS
 62
     0
100
AcDbPoint
 10
11.5
 20
57.0
 30
0.0
  0
POINT
  5
114B
330
FB0
100
AcDbEntity
  8
DEFPOINTS
 62
     0
100
AcDbPoint
 10
-9.999999999999991
 20
57.0
 30
0.0
  0
ENDBLK
  5
FBC
330
FB0
100
AcDbEntity
  8
0
100
AcDbBlockEnd
  0
BLOCK
  5
1064
330
105A
100
AcDbEntity
  8
0
100
AcDbBlockBegin
  2
*D34
 70
     1
 10
0.0
 20
0.0
 30
0.0
  3
*D34
  1

  0
LINE
  5
111D
330
105A
100
AcDbEntity
  8
BEMASSUNG
370
    -2
100
AcDbLine
 10
11.5
 20
105.0
 30
0.0
 11
11.5
 21
94.0
 31
0.0
  0
LINE
  5
111E
330
105A
100
AcDbEntity
  8
BEMASSUNG
370
    -2
100
AcDbLine
 10
62.5
 20
105.0
 30
0.0
 11
62.5
 21
94.0
 31
0.0
  0
LINE
  5
111F
330
105A
100
AcDbEntity
  8
BEMASSUNG
370
    -2
100
AcDbLine
 10
16.5
 20
95.0
 30
0.0
 11
57.5
 21
95.0
 31
0.0
  0
SOLID
  5
1120
330
105A
100
AcDbEntity
  8
BEMASSUNG
100
AcDbTrace
 10
16.5
 20
95.83333333333333
 30
0.0
 11
16.5
 21
94.16666666666667
 31
0.0
 12
11.5
 22
95.0
 32
0.0
 13
11.5
 23
95.0
 33
0.0
  0
SOLID
  5
1121
330
105A
100
AcDbEntity
  8
BEMASSUNG
100
AcDbTrace
 10
57.5
 20
95.83333333333333
 30
0.0
 11
57.5
 21
94.16666666666667
 31
0.0
 12
62.5
 22
95.0
 32
0.0
 13
62.5
 23
95.0
 33
0.0
  0
MTEXT
  5
1122
330
105A
100
AcDbEntity
  8
BEMASSUNG
100
AcDbMText
 10
37.0
 20
98.50000000000001
 30
0.0
 40
5.0
 41
0.0
 46
0.0
 71
     5
 72
     1
  1
\A1;51
  7
ISOCP
 73
     1
 44
1.0
  0
POINT
  5
1123
330
105A
100
AcDbEntity
  8
DEFPOINTS
 62
     0
100
AcDbPoint
 10
11.5
 20
105.0
 30
0.0
  0
POINT
  5
1124
330
105A
100
AcDbEntity
  8
DEFPOINTS
 62
     0
100
AcDbPoint
 10
62.5
 20
105.0
 30
0.0
  0
POINT
  5
1125
330
105A
100
AcDbEntity
  8
DEFPOINTS
 62
     0
100
AcDbPoint
 10
62.5
 20
95.0
 30
0.0
  0
ENDBLK
  5
1065
330
105A
100
AcDbEntity
  8
0
100
AcDbBlockEnd
  0
ENDSEC
  0
SECTION
  2
ENTITIES
  0
INSERT
  5
22F
330
1A
100
AcDbEntity
  8
ASHADE
 62
     1
100
AcDbBlockReference
  2
AVE_RENDER
 10
0.0
 20
0.0
 30
0.0
1001
AVE_RENDER
1002
{
1070
     6
1000
Pref
1070
    30
1070
    20
1070
     1
1070
     0
1000

1070
    10
1070
     1
1070
    30
1040
25.4
1070
     1
1040
0.3
1040
0.7
1040
0.0
1040
10.0
1010
-1.0
1020
-1.0
1030
-1.0
1040
0.3
1070
    49
1070
     0
1070
     0
1010
1.0
1020
1.0
1030
1.0
1040
45.0
1070
     1
1070
     0
1000
WCS
1040
0.0
1002
}
  0
INSERT
  5
230
330
1A
100
AcDbEntity
  8
ASHADE
 62
     3
100
AcDbBlockReference
  2
AVE_RENDER
 10
0.0
 20
0.0
 30
0.0
1001
AVE_RENDER
1002
{
1070
     0
1000
Full Opt
1070
     0
1070
     1
1070
     1
1070
     1
1070
     0
1070
     0
1070
     0
1070
     1
1070
     1
1040
0.0001
1040
0.0001
1002
}
  0
INSERT
  5
231
330
1A
100
AcDbEntity
  8
ASHADE
 62
     4
100
AcDbBlockReference
  2
AVE_RENDER
 10
0.0
 20
0.0
 30
0.0
1001
AVE_RENDER
1002
{
1070
     0
1000
Quick Opt
1070
     0
1070
     1
1070
     1
1070
     1
1070
     0
1070
     0
1070
     1
1002
}
  0
INSERT
  5
232
330
1A
100
AcDbEntity
  8
ASHADE
 62
     5
100
AcDbBlockReference
  2
AVE_RENDER
 10
0.0
 20
0.0
 30
0.0
1001
AVE_RENDER
1002
{
1070
     1
1000
Scanl Opt
1070
     2
1070
     0
1070
     2
1040
2.0
1040
4.0
1070
     0
1070
     1
1070
     0
1040
0.03
1002
}
  0
INSERT
  5
233
330
1A
100
AcDbEntity
  8
ASHADE
 62
     6
100
AcDbBlockReference
  2
AVE_RENDER
 10
0.0
 20
0.0
 30
0.0
1001
AVE_RENDER
1002
{
1070
     2
1000
Raytr Opt
1070
     2
1070
     0
1070
     2
1040
2.0
1040
4.0
1070
     0
1070
     1
1070
     1
1040
0.03
1070
     3
1040
0.03
1002
}
  0
INSERT
  5
234
330
1A
100
AcDbEntity
  8
ASHADE
 62
     7
100
AcDbBlockReference
  2
AVE_RENDER
 10
0.0
 20
0.0
 30
0.0
1001
AVE_RENDER
1002
{
1070
     0
1000
RFile Opt
1070
     5
1070
   640
1070
   480
1070
 10000
1070
     3
1070
    32
1070
    24
1070
     0
1070
     0
1070
     0
1070
     1
1070
     0
1070
     0
1070
     0
1002
}
  0
INSERT
  5
235
330
1A
100
AcDbEntity
  8
ASHADE
 62
     8
100
AcDbBlockReference
  2
AVE_RENDER
 10
0.0
 20
0.0
 30
0.0
1001
AVE_RENDER
1002
{
1070
     0
1000
Fog Opt
1070
     0
1070
     0
1040
0.0
1040
1.0
1040
0.0
1040
1.0
1010
0.5
1020
0.5
1030
0.5
1002
}
  0
INSERT
  5
236
330
1A
100
AcDbEntity
  8
ASHADE
 62
     9
100
AcDbBlockReference
  2
AVE_RENDER
 10
0.0
 20
0.0
 30
0.0
1001
AVE_RENDER
1002
{
1070
     0
1000
BG Opt
1070
     0
1070
     1
1010
0.0
1020
0.0
1030
0.0
1010
1.0
1020
0.0
1030
0.0
1010
0.0
1020
1.0
1030
0.0
1010
0.0
1020
0.0
1030
1.0
1040
0.5
1040
0.33
1040
0.0
1000

1070
     1
1000

1070
     1
1070
     1
1040
1.0
1040
1.0
1040
0.0
1040
0.0
1070
     0
1002
}
  0
INSERT
  5
23D
330
1A
100
AcDbEntity
  8
ASHADE
 62
     1
100
AcDbBlockReference
  2
AVE_GLOBAL
 10
0.0
 20
0.0
 30
0.0
1001
AVE_MATERIAL
1002
{
1000
*GLOBAL*
1000
1
1000
Globales Material.
1002
{
1002
}
1002
{
1070
    63
1002
{
1002
{
1010
-1.0
1020
-1.0
1030
-1.0
1002
}
1040
0.1000000014901161
1000

1040
0.0
1002
{
1002
}
1040
0.0
1002
{
1002
}
1040
0.0
1002
}
1002
{
1002
{
1010
-1.0
1020
-1.0
1030
-1.0
1002
}
1040
0.6999999880790711
1000

1040
0.0
1002
{
1002
}
1040
0.0
1002
{
1002
}
1040
0.0
1002
}
1002
{
1002
{
1010
-1.0
1020
-1.0
1030
-1.0
1002
}
1040
0.2000000029802322
1000

1040
0.0
1002
{
1002
}
1040
0.0
1002
{
1002
}
1040
0.0
1002
}
1002
{
1070
     0
1002
{
1070
     1
1002
{
1040
1.0
1040
1.0
1000

1040
0.0
1002
{
1002
}
1040
0.0
1002
{
1002
}
1040
0.0
1002
}
1002
}
1040
1.0
1040
0.0
1040
0.0
1002
}
1002
{
1040
1.0
1040
1.0
1000

1040
0.0
1002
{
1002
}
1040
0.0
1002
{
1002
}
1040
0.0
1002
}
1002
{
1040
0.5
1040
1.0
1000

1040
0.0
1002
{
1002
}
1040
0.0
1002
{
1002
}
1040
0.0
1002
}
1002
{
1070
     0
1040
0.0
1002
{
1002
}
1040
1.0
1002
{
1002
}
1040
0.0
1002
}
1002
{
1040
0.0
1002
{
1002
{
1010
0.0
1020
0.0
1030
0.0
1002
}
1040
1.0
1000

1040
0.0
1002
{
1002
}
1040
0.0
1002
{
1002
}
1040
0.0
1002
}
1002
}
1002
{
1002
{
1070
     1
1002
{
1040
0.0
1040
1.0
1000

1040
0.0
1002
{
1002
}
1040
0.0
1002
{
1002
}
1040
0.0
1002
}
1002
}
1040
0.0
1002
{
1002
}
1010
1.0
1020
0.0
1030
0.0
1010
0.0
1020
1.0
1030
0.0
1010
0.0
1020
0.0
1030
1.0
1070
     0
1002
}
1002
{
1002
{
1040
1.0
1040
1.0
1002
{
1070
     1
1002
{
1040
1.0
1040
1.0
1000

1040
0.0
1002
{
1002
}
1040
0.0
1002
{
1002
}
1040
0.0
1002
}
1002
}
1002
}
1070
     0
1040
0.0
1002
{
1002
}
1002
}
1002
{
1002
}
1002
}
1002
{
1071
        3
1070
     3
1070
     0
1002
{
1070
     2
1070
     0
1070
     0
1040
0.0
1002
}
1070
     0
1070
     2
1002
{
1002
}
1002
}
1002
{
1040
8030.0
1040
190.3000030517578
1040
0.3050000071525574
1040
228.0
1040
545.0
1040
14.0
1040
17.39999961853027
1040
0.4560000002384186
1002
}
1002
}
  0
LINE
  5
E15
330
1A
100
AcDbEntity
  8
0
100
AcDbLine
 10
0.0
 20
110.0
 30
0.0
 11
74.0
 21
110.0
 31
0.0
  0
LINE
  5
E16
330
1A
100
AcDbEntity
  8
0
100
AcDbLine
 10
74.0
 20
110.0
 30
0.0
 11
74.0
 21
130.0
 31
0.0
  0
LINE
  5
E17
330
1A
100
AcDbEntity
  8
0
100
AcDbLine
 10
74.0
 20
130.0
 30
0.0
 11
0.0
 21
130.0
 31
0.0
  0
LINE
  5
E18
330
1A
100
AcDbEntity
  8
0
100
AcDbLine
 10
0.0
 20
130.0
 30
0.0
 11
0.0
 21
110.0
 31
0.0
  0
LINE
  5
E19
330
1A
100
AcDbEntity
  8
ACHSEN
100
AcDbLine
 10
37.0
 20
105.0
 30
0.0
 11
37.0
 21
255.0
 31
0.0
  0
LINE
  5
E1A
330
1A
100
AcDbEntity
  8
0
100
AcDbLine
 10
3.0
 20
200.5
 30
0.0
 11
3.0
 21
250.0
 31
0.0
  0
LINE
  5
E1B
330
1A
100
AcDbEntity
  8
0
100
AcDbLine
 10
3.0
 20
250.0
 30
0.0
 11
71.0
 21
250.0
 31
0.0
  0
LINE
  5
E1C
330
1A
100
AcDbEntity
  8
0
100
AcDbLine
 10
71.0
 20
250.0
 30
0.0
 11
71.0
 21
130.0
 31
0.0
  0
LINE
  5
E1D
330
1A
100
AcDbEntity
  8
AVERDECKTE
100
AcDbLine
 10
6.0
 20
130.0
 30
0.0
 11
6.0
 21
110.0
 31
0.0
  0
LINE
  5
E1E
330
1A
100
AcDbEntity
  8
AVERDECKTE
100
AcDbLine
 10
17.0
 20
130.0
 30
0.0
 11
17.0
 21
110.0
 31
0.0
  0
LINE
  5
E1F
330
1A
100
AcDbEntity
  8
ACHSEN
100
AcDbLine
 10
11.5
 20
135.0
 30
0.0
 11
11.5
 21
105.0
 31
0.0
  0
LINE
  5
E20
330
1A
100
AcDbEntity
  8
AVERDECKTE
100
AcDbLine
 10
68.0
 20
130.0
 30
0.0
 11
68.0
 21
110.0
 31
0.0
  0
LINE
  5
E21
330
1A
100
AcDbEntity
  8
AVERDECKTE
100
AcDbLine
 10
57.0
 20
130.0
 30
0.0
 11
57.0
 21
110.0
 31
0.0
  0
LINE
  5
E22
330
1A
100
AcDbEntity
  8
ACHSEN
100
AcDbLine
 10
62.5
 20
135.0
 30
0.0
 11
62.5
 21
105.0
 31
0.0
  0
LINE
  5
E23
330
1A
100
AcDbEntity
  8
0
100
AcDbLine
 10
6.5
 20
130.0
 30
0.0
 11
6.5
 21
170.0
 31
0.0
  0
LINE
  5
E24
330
1A
100
AcDbEntity
  8
0
100
AcDbLine
 10
23.5
 20
130.0
 30
0.0
 11
23.5
 21
170.0
 31
0.0
  0
ARC
  5
E26
330
1A
100
AcDbEntity
  8
0
100
AcDbCircle
 10
15.0
 20
170.0
 30
0.0
 40
8.5
100
AcDbArc
 50
0.0
 51
180.0
  0
LINE
  5
E27
330
1A
100
AcDbEntity
  8
0
100
AcDbLine
 10
6.5
 20
170.0
 30
0.0
 11
23.5
 21
170.0
 31
0.0
  0
LINE
  5
E28
330
1A
100
AcDbEntity
  8
0
100
AcDbLine
 10
67.5
 20
130.0
 30
0.0
 11
67.5
 21
170.0
 31
0.0
  0
LINE
  5
E29
330
1A
100
AcDbEntity
  8
0
100
AcDbLine
 10
50.5
 20
130.0
 30
0.0
 11
50.5
 21
170.0
 31
0.0
  0
ARC
  5
E2A
330
1A
100
AcDbEntity
  8
0
100
AcDbCircle
 10
59.0
 20
170.0
 30
0.0
 40
8.5
100
AcDbArc
 50
0.0
 51
180.0
  0
LINE
  5
E2B
330
1A
100
AcDbEntity
  8
0
100
AcDbLine
 10
67.5
 20
170.0
 30
0.0
 11
50.5
 21
170.0
 31
0.0
  0
LINE
  5
E2C
330
1A
100
AcDbEntity
  8
0
100
AcDbLine
 10
3.0
 20
240.0
 30
0.0
 11
71.0
 21
240.0
 31
0.0
  0
LINE
  5
E2D
330
1A
100
AcDbEntity
  8
0
100
AcDbLine
 10
4.5
 20
148.0
 30
0.0
 11
4.5
 21
167.0
 31
0.0
  0
LINE
  5
E2E
330
1A
100
AcDbEntity
  8
0
100
AcDbLine
 10
4.5
 20
180.0
 30
0.0
 11
4.5
 21
199.0
 31
0.0
  0
LINE
  5
E2F
330
1A
100
AcDbEntity
  8
0
100
AcDbLine
 10
4.5
 20
180.0
 30
0.0
 11
3.0
 21
178.5
 31
0.0
  0
LINE
  5
E30
330
1A
100
AcDbEntity
  8
0
100
AcDbLine
 10
4.5
 20
199.0
 30
0.0
 11
3.0
 21
200.5
 31
0.0
  0
LINE
  5
E31
330
1A
100
AcDbEntity
  8
0
100
AcDbLine
 10
4.5
 20
167.0
 30
0.0
 11
3.0
 21
168.5
 31
0.0
  0
LINE
  5
E32
330
1A
100
AcDbEntity
  8
0
100
AcDbLine
 10
4.5
 20
148.0
 30
0.0
 11
3.0
 21
146.5
 31
0.0
  0
LINE
  5
E33
330
1A
100
AcDbEntity
  8
0
100
AcDbLine
 10
3.0
 20
178.5
 30
0.0
 11
3.0
 21
168.5
 31
0.0
  0
LINE
  5
E34
330
1A
100
AcDbEntity
  8
0
100
AcDbLine
 10
3.0
 20
146.5
 30
0.0
 11
3.0
 21
130.0
 31
0.0
  0
LINE
  5
E35
330
1A
100
AcDbEntity
  8
ACHSEN
100
AcDbLine
 10
-0.5
 20
189.5
 30
0.0
 11
17.0
 21
189.5
 31
0.0
  0
LINE
  5
E38
330
1A
100
AcDbEntity
  8
AVERDECKTE
100
AcDbLine
 10
4.5
 20
196.5
 30
0.0
 11
15.0
 21
196.5
 31
0.0
  0
LINE
  5
E39
330
1A
100
AcDbEntity
  8
AVERDECKTE
100
AcDbLine
 10
4.5
 20
195.5
 30
0.0
 11
15.0
 21
195.5
 31
0.0
  0
LINE
  5
E3A
330
1A
100
AcDbEntity
  8
AVERDECKTE
100
AcDbLine
 10
4.5
 20
182.5
 30
0.0
 11
15.0
 21
182.5
 31
0.0
  0
LINE
  5
E3B
330
1A
100
AcDbEntity
  8
AVERDECKTE
100
AcDbLine
 10
4.5
 20
183.5
 30
0.0
 11
15.0
 21
183.5
 31
0.0
  0
LINE
  5
E3C
330
1A
100
AcDbEntity
  8
ACHSEN
100
AcDbLine
 10
-0.5
 20
157.5
 30
0.0
 11
17.0
 21
157.5
 31
0.0
  0
LINE
  5
E3D
330
1A
100
AcDbEntity
  8
AVERDECKTE
100
AcDbLine
 10
4.5
 20
164.5
 30
0.0
 11
15.0
 21
164.5
 31
0.0
  0
LINE
  5
E3E
330
1A
100
AcDbEntity
  8
AVERDECKTE
100
AcDbLine
 10
4.5
 20
163.5
 30
0.0
 11
15.0
 21
163.5
 31
0.0
  0
LINE
  5
E3F
330
1A
100
AcDbEntity
  8
AVERDECKTE
100
AcDbLine
 10
4.5
 20
150.5
 30
0.0
 11
15.0
 21
150.5
 31
0.0
  0
LINE
  5
E40
330
1A
100
AcDbEntity
  8
AVERDECKTE
100
AcDbLine
 10
4.5
 20
151.5
 30
0.0
 11
15.0
 21
151.5
 31
0.0
  0
LINE
  5
E41
330
1A
100
AcDbEntity
  8
0
100
AcDbLine
 10
0.0
 20
0.0
 30
0.0
 11
74.0
 21
0.0
 31
0.0
  0
LINE
  5
E42
330
1A
100
AcDbEntity
  8
0
100
AcDbLine
 10
74.0
 20
0.0
 30
0.0
 11
74.0
 21
74.0
 31
0.0
  0
LINE
  5
E43
330
1A
100
AcDbEntity
  8
0
100
AcDbLine
 10
74.0
 20
74.0
 30
0.0
 11
0.0
 21
74.0
 31
0.0
  0
LINE
  5
E44
330
1A
100
AcDbEntity
  8
0
100
AcDbLine
 10
0.0
 20
74.0
 30
0.0
 11
0.0
 21
0.0
 31
0.0
  0
LINE
  5
E45
330
1A
100
AcDbEntity
  8
ACHSEN
100
AcDbLine
 10
11.5
 20
79.0
 30
0.0
 11
11.5
 21
-5.0
 31
0.0
  0
LINE
  5
E46
330
1A
100
AcDbEntity
  8
ACHSEN
100
AcDbLine
 10
-5.0
 20
11.5
 30
0.0
 11
79.0
 21
11.5
 31
0.0
  0
LINE
  5
E47
330
1A
100
AcDbEntity
  8
ACHSEN
100
AcDbLine
 10
-5.0
 20
62.5
 30
0.0
 11
79.0
 21
62.5
 31
0.0
  0
LINE
  5
E48
330
1A
100
AcDbEntity
  8
ACHSEN
100
AcDbLine
 10
62.5
 20
-5.0
 30
0.0
 11
62.5
 21
79.0
 31
0.0
  0
LINE
  5
E49
330
1A
100
AcDbEntity
  8
ACHSEN
100
AcDbLine
 10
-5.0
 20
37.0
 30
0.0
 11
79.0
 21
37.0
 31
0.0
  0
CIRCLE
  5
E4A
330
1A
100
AcDbEntity
  8
0
100
AcDbCircle
 10
37.0
 20
37.0
 30
0.0
 40
34.0
  0
ARC
  5
E4D
330
1A
100
AcDbEntity
  8
0
100
AcDbCircle
 10
11.5
 20
62.5
 30
0.0
 40
5.5
100
AcDbArc
 50
18.86269720432273
 51
251.1373027956773
  0
ARC
  5
E4E
330
1A
100
AcDbEntity
  8
AVERDECKTE
100
AcDbCircle
 10
11.49999999999999
 20
62.5
 30
0.0
 40
5.5
100
AcDbArc
 50
251.1373027956774
 51
18.86269720432278
  0
ARC
  5
E50
330
1A
100
AcDbEntity
  8
AVERDECKTE
100
AcDbCircle
 10
11.5
 20
62.5
 30
0.0
 40
11.5
100
AcDbArc
 50
244.4910957634578
 51
25.50890423654222
  0
ARC
  5
E51
330
1A
100
AcDbEntity
  8
0
100
AcDbCircle
 10
11.5
 20
11.49999999999999
 30
0.0
 40
5.5
100
AcDbArc
 50
108.8626972043228
 51
341.1373027956776
  0
ARC
  5
E52
330
1A
100
AcDbEntity
  8
AVERDECKTE
100
AcDbCircle
 10
11.49999999999999
 20
11.5
 30
0.0
 40
5.5
100
AcDbArc
 50
341.1373027956768
 51
108.8626972043227
  0
ARC
  5
E53
330
1A
100
AcDbEntity
  8
AVERDECKTE
100
AcDbCircle
 10
11.5
 20
11.49999999999999
 30
0.0
 40
11.5
100
AcDbArc
 50
334.4910957634577
 51
115.5089042365423
  0
ARC
  5
E54
330
1A
100
AcDbEntity
  8
0
100
AcDbCircle
 10
62.5
 20
62.5
 30
0.0
 40
5.5
100
AcDbArc
 50
288.8626972043224
 51
161.1373027956772
  0
ARC
  5
E55
330
1A
100
AcDbEntity
  8
AVERDECKTE
100
AcDbCircle
 10
62.5
 20
62.5
 30
0.0
 40
5.5
100
AcDbArc
 50
161.1373027956771
 51
288.8626972043224
  0
ARC
  5
E56
330
1A
100
AcDbEntity
  8
AVERDECKTE
100
AcDbCircle
 10
62.5
 20
62.5
 30
0.0
 40
11.5
100
AcDbArc
 50
154.4910957634576
 51
295.5089042365423
  0
ARC
  5
E57
330
1A
100
AcDbEntity
  8
0
100
AcDbCircle
 10
62.5
 20
11.49999999999999
 30
0.0
 40
5.5
100
AcDbArc
 50
198.8626972043225
 51
71.13730279567684
  0
ARC
  5
E58
330
1A
100
AcDbEntity
  8
AVERDECKTE
100
AcDbCircle
 10
62.5
 20
11.5
 30
0.0
 40
5.5
100
AcDbArc
 50
71.13730279567761
 51
198.8626972043232
  0
ARC
  5
E59
330
1A
100
AcDbEntity
  8
AVERDECKTE
100
AcDbCircle
 10
62.5
 20
11.49999999999999
 30
0.0
 40
11.5
100
AcDbArc
 50
64.49109576345768
 51
205.5089042365424
  0
DIMENSION
  5
E65
330
1A
100
AcDbEntity
  8
BEMASSUNG
100
AcDbDimension
  2
*D23
 10
-19.99999999999998
 20
110.0
 30
0.0
 11
-20.0
 21
134.0
 31
0.0
 70
   160
  1
48
 71
     5
 42
47.5
 73
     0
 74
     0
 75
     0
  3
PROTECH
100
AcDbAlignedDimension
 13
-0.5
 23
157.5
 33
0.0
 14
0.0
 24
110.0
 34
0.0
 50
90.0
100
AcDbRotatedDimension
1001
ACAD
1000
DSTYLE
1002
{
1070
    41
1040
5.0
1070
   140
1040
5.0
1070
   141
1040
-5.0
1002
}
  0
DIMENSION
  5
E89
330
1A
100
AcDbEntity
  8
BEMASSUNG
100
AcDbDimension
  2
*D24
 10
-29.99999999999999
 20
110.0
 30
0.0
 11
-30.0
 21
150.0
 31
0.0
 70
   160
  1
80
 71
     5
 42
79.5
 73
     0
 74
     0
 75
     0
  3
PROTECH
100
AcDbAlignedDimension
 13
-0.5
 23
189.5
 33
0.0
 14
0.0
 24
110.0
 34
0.0
 50
90.0
100
AcDbRotatedDimension
1001
ACAD
1000
DSTYLE
1002
{
1070
    41
1040
5.0
1070
   140
1040
5.0
1070
   141
1040
-5.0
1002
}
  0
DIMENSION
  5
E96
330
1A
100
AcDbEntity
  8
BEMASSUNG
100
AcDbDimension
  2
*D25
 10
-40.0
 20
110.0
 30
0.0
 11
-40.0
 21
180.0
 31
0.0
 70
   160
 71
     5
 42
140.0
 73
     0
 74
     0
 75
     0
  3
PROTECH
100
AcDbAlignedDimension
 13
3.0
 23
250.0
 33
0.0
 14
0.0
 24
110.0
 34
0.0
 50
90.0
100
AcDbRotatedDimension
1001
ACAD
1000
DSTYLE
1002
{
1070
    41
1040
5.0
1070
   140
1040
5.0
1070
   141
1040
-5.0
1002
}
  0
DIMENSION
  5
EF4
330
1A
100
AcDbEntity
  8
BEMASSUNG
100
AcDbDimension
  2
*D26
 10
-9.999999999999982
 20
110.0
 30
0.0
 11
-10.0
 21
119.0
 31
0.0
 70
   160
 71
     5
 42
20.0
 73
     0
 74
     0
 75
     0
  3
PROTECH
100
AcDbAlignedDimension
 13
0.0
 23
130.0
 33
0.0
 14
0.0
 24
110.0
 34
0.0
 50
90.0
100
AcDbRotatedDimension
1001
ACAD
1000
DSTYLE
1002
{
1070
    41
1040
5.0
1070
   140
1040
5.0
1070
   141
1040
-5.0
1002
}
  0
DIMENSION
  5
F0A
330
1A
100
AcDbEntity
  8
BEMASSUNG
100
AcDbDimension
  2
*D27
 10
71.0
 20
260.0
 30
0.0
 11
36.0
 21
260.0
 31
0.0
 70
   160
 71
     5
 42
68.0
 73
     0
 74
     0
 75
     0
  3
PROTECH
100
AcDbAlignedDimension
 13
3.0
 23
250.0
 33
0.0
 14
71.0
 24
250.0
 34
0.0
100
AcDbRotatedDimension
1001
ACAD
1000
DSTYLE
1002
{
1070
    41
1040
5.0
1070
   140
1040
5.0
1070
   141
1040
-5.0
1002
}
  0
DIMENSION
  5
F32
330
1A
100
AcDbEntity
  8
BEMASSUNG
100
AcDbDimension
  2
*D28
 10
0.0000000000000278
 20
182.5
 30
0.0
 11
0.0
 21
208.5
 31
0.0
 70
   160
  1
1/4''
 71
     5
 42
14.0
 73
     0
 74
     0
 75
     0
  3
PROTECH
100
AcDbAlignedDimension
 13
4.5
 23
196.5
 33
0.0
 14
4.5
 24
182.5
 34
0.0
 50
90.0
100
AcDbRotatedDimension
1001
ACAD
1000
DSTYLE
1002
{
1070
    41
1040
5.0
1070
   140
1040
5.0
1070
   141
1040
-5.0
1002
}
  0
DIMENSION
  5
F4A
330
1A
100
AcDbEntity
  8
BEMASSUNG
100
AcDbDimension
  2
*D29
 10
0.0000000000000232
 20
150.5
 30
0.0
 11
0.0000000000000006
 21
176.5
 31
0.0
 70
   160
  1
1/4''
 71
     5
 42
14.0
 73
     0
 74
     0
 75
     0
  3
PROTECH
100
AcDbAlignedDimension
 13
4.5
 23
164.5
 33
0.0
 14
4.5
 24
150.5
 34
0.0
 50
90.0
100
AcDbRotatedDimension
1001
ACAD
1000
DSTYLE
1002
{
1070
    41
1040
5.0
1070
   140
1040
5.0
1070
   141
1040
-5.0
1002
}
  0
DIMENSION
  5
F76
330
1A
100
AcDbEntity
  8
BEMASSUNG
100
AcDbDimension
  2
*D30
 10
-0.0000000000000015
 20
85.0
 30
0.0
 11
37.0
 21
85.0
 31
0.0
 70
   160
 71
     5
 42
74.0
 73
     0
 74
     0
 75
     0
  3
PROTECH
100
AcDbAlignedDimension
 13
74.0
 23
110.0
 33
0.0
 14
0.0
 24
110.0
 34
0.0
100
AcDbRotatedDimension
1001
ACAD
1000
DSTYLE
1002
{
1070
    41
1040
5.0
1070
   140
1040
5.0
1070
   141
1040
-5.0
1002
}
  0
DIMENSION
  5
F83
330
1A
100
AcDbEntity
  8
BEMASSUNG
100
AcDbDimension
  2
*D31
 10
-20.0
 20
11.5
 30
0.0
 11
-20.0
 21
37.0
 31
0.0
 70
   160
 71
     5
 42
51.0
 73
     0
 74
     0
 75
     0
  3
PROTECH
100
AcDbAlignedDimension
 13
-5.0
 23
62.5
 33
0.0
 14
-5.0
 24
11.5
 34
0.0
 50
90.0
100
AcDbRotatedDimension
1001
ACAD
1000
DSTYLE
1002
{
1070
    41
1040
5.0
1070
   140
1040
5.0
1070
   141
1040
-5.0
1002
}
  0
DIMENSION
  5
F90
330
1A
100
AcDbEntity
  8
BEMASSUNG
100
AcDbDimension
  2
*D32
 10
-30.0
 20
0.0000000000000085
 30
0.0
 11
-30.0
 21
37.0
 31
0.0
 70
   160
 71
     5
 42
74.0
 73
     0
 74
     0
 75
     0
  3
PROTECH
100
AcDbAlignedDimension
 13
0.0
 23
74.0
 33
0.0
 14
0.0
 24
0.0
 34
0.0
 50
90.0
100
AcDbRotatedDimension
1001
ACAD
1000
DSTYLE
1002
{
1070
    41
1040
5.0
1070
   140
1040
5.0
1070
   141
1040
-5.0
1002
}
  0
DIMENSION
  5
FAF
330
1A
100
AcDbEntity
  8
BEMASSUNG
100
AcDbDimension
  2
*D33
 10
-9.999999999999991
 20
57.0
 30
0.0
 11
-10.0
 21
44.24999999999999
 31
0.0
 70
   160
 71
     5
 42
11.00000000000001
 73
     0
 74
     0
 75
     0
  3
PROTECH
100
AcDbAlignedDimension
 13
11.5
 23
68.00000000000001
 33
0.0
 14
11.5
 24
57.0
 34
0.0
 50
90.0
100
AcDbRotatedDimension
1001
ACAD
1000
DSTYLE
1002
{
1070
    41
1040
5.0
1070
   140
1040
5.0
1070
   141
1040
-5.0
1002
}
  0
LINE
  5
FF3
330
1A
100
AcDbEntity
  8
ACHSEN
100
AcDbLine
 10
37.0
 20
79.0
 30
0.0
 11
37.0
 21
-5.0
 31
0.0
  0
DIMENSION
  5
1059
330
1A
100
AcDbEntity
  8
BEMASSUNG
100
AcDbDimension
  2
*D34
 10
62.5
 20
95.0
 30
0.0
 11
37.0
 21
95.0
 31
0.0
 70
   160
 71
     5
 42
51.0
 73
     0
 74
     0
 75
     0
  3
PROTECH
100
AcDbAlignedDimension
 13
11.5
 23
105.0
 33
0.0
 14
62.5
 24
105.0
 34
0.0
100
AcDbRotatedDimension
1001
ACAD
1000
DSTYLE
1002
{
1070
    41
1040
5.0
1070
   140
1040
5.0
1070
   141
1040
-5.0
1002
}
  0
LINE
  5
1156
102
{ACAD_REACTORS
330
115F
102
}
330
1A
100
AcDbEntity
  8
BEMASSUNG
100
AcDbLine
 10
-18.0
 20
187.5
 30
0.0
 11
-18.0
 21
191.5
 31
0.0
  0
LINE
  5
1157
102
{ACAD_REACTORS
330
115F
102
}
330
1A
100
AcDbEntity
  8
BEMASSUNG
100
AcDbLine
 10
-18.0
 20
191.5
 30
0.0
 11
-8.0
 21
191.5
 31
0.0
  0
LINE
  5
1158
102
{ACAD_REACTORS
330
115F
102
}
330
1A
100
AcDbEntity
  8
BEMASSUNG
100
AcDbLine
 10
-8.0
 20
191.5
 30
0.0
 11
-8.0
 21
193.5
 31
0.0
  0
LINE
  5
115A
102
{ACAD_REACTORS
330
115F
102
}
330
1A
100
AcDbEntity
  8
BEMASSUNG
100
AcDbLine
 10
-18.0
 20
187.5
 30
0.0
 11
-8.0
 21
187.5
 31
0.0
  0
LINE
  5
115B
102
{ACAD_REACTORS
330
115F
102
}
330
1A
100
AcDbEntity
  8
BEMASSUNG
100
AcDbLine
 10
-8.0
 20
187.5
 30
0.0
 11
-8.0
 21
185.5
 31
0.0
  0
LINE
  5
115D
102
{ACAD_REACTORS
330
115F
102
}
330
1A
100
AcDbEntity
  8
BEMASSUNG
100
AcDbLine
 10
-8.0
 20
193.5
 30
0.0
 11
-2.0
 21
189.5
 31
0.0
  0
LINE
  5
115E
102
{ACAD_REACTORS
330
115F
102
}
330
1A
100
AcDbEntity
  8
BEMASSUNG
100
AcDbLine
 10
-2.0
 20
189.5
 30
0.0
 11
-8.0
 21
185.5
 31
0.0
  0
HATCH
  5
115F
330
1A
100
AcDbEntity
  8
BEMASSUNG
100
AcDbHatch
 10
0.0
 20
0.0
 30
0.0
210
0.0
220
0.0
230
1.0
  2
ANSI31
 70
     0
 71
     1
 91
        1
 92
        1
 93
        7
 72
     1
 10
-2.0
 20
189.5
 11
-8.0
 21
185.5
 72
     1
 10
-8.0
 20
185.5
 11
-8.0
 21
187.5
 72
     1
 10
-8.0
 20
187.5
 11
-18.0
 21
187.5
 72
     1
 10
-18.0
 20
187.5
 11
-18.0
 21
191.5
 72
     1
 10
-18.0
 20
191.5
 11
-8.0
 21
191.5
 72
     1
 10
-8.0
 20
191.5
 11
-8.0
 21
193.5
 72
     1
 10
-8.0
 20
193.5
 11
-2.0
 21
189.5
 97
        7
330
115E
330
115B
330
115A
330
1156
330
1157
330
1158
330
115D
 75
     0
 76
     1
 52
0.0
 41
5.0
 77
     0
 78
     1
 53
45.0
 43
-38.0
 44
0.0
 45
-0.4419417382415922
 46
0.4419417382415923
 79
     0
 98
        1
 10
-38.0
 20
0.0
1001
ACAD
1010
0.0
1020
0.0
1030
0.0
  0
HATCH
  5
1162
330
1A
100
AcDbEntity
  8
BEMASSUNG
100
AcDbHatch
 10
0.0
 20
0.0
 30
0.0
210
0.0
220
0.0
230
1.0
  2
ANSI31
 70
     0
 71
     1
 91
        1
 92
        1
 93
        7
 72
     1
 10
-18.00000000000003
 20
157.5
 11
-12.00000000000003
 21
161.5
 72
     1
 10
-12.00000000000003
 20
161.5
 11
-12.00000000000003
 21
159.5
 72
     1
 10
-12.00000000000003
 20
159.5
 11
-2.000000000000014
 21
159.5
 72
     1
 10
-2.000000000000014
 20
159.5
 11
-2.000000000000014
 21
155.5
 72
     1
 10
-2.000000000000014
 20
155.5
 11
-12.00000000000003
 21
155.5
 72
     1
 10
-12.00000000000003
 20
155.5
 11
-12.00000000000003
 21
153.5
 72
     1
 10
-12.00000000000003
 20
153.5
 11
-18.00000000000003
 21
157.5
 97
        7
330
1169
330
1167
330
1166
330
1163
330
1164
330
1165
330
1168
 75
     0
 76
     1
 52
180.0
 41
5.0
 77
     0
 78
     1
 53
225.0
 43
18.0
 44
347.0
 45
0.4419417382415922
 46
-0.4419417382415923
 79
     0
 98
        1
 10
18.0
 20
347.0
1001
ACAD
1010
0.0
1020
0.0
1030
0.0
  0
LINE
  5
1163
102
{ACAD_REACTORS
330
1162
102
}
330
1A
100
AcDbEntity
  8
BEMASSUNG
100
AcDbLine
 10
-2.000000000000014
 20
159.5
 30
0.0
 11
-2.000000000000014
 21
155.5
 31
0.0
  0
LINE
  5
1164
102
{ACAD_REACTORS
330
1162
102
}
330
1A
100
AcDbEntity
  8
BEMASSUNG
100
AcDbLine
 10
-2.000000000000014
 20
155.5
 30
0.0
 11
-12.00000000000003
 21
155.5
 31
0.0
  0
LINE
  5
1165
102
{ACAD_REACTORS
330
1162
102
}
330
1A
100
AcDbEntity
  8
BEMASSUNG
100
AcDbLine
 10
-12.00000000000003
 20
155.5
 30
0.0
 11
-12.00000000000003
 21
153.5
 31
0.0
  0
LINE
  5
1166
102
{ACAD_REACTORS
330
1162
102
}
330
1A
100
AcDbEntity
  8
BEMASSUNG
100
AcDbLine
 10
-2.000000000000014
 20
159.5
 30
0.0
 11
-12.00000000000003
 21
159.5
 31
0.0
  0
LINE
  5
1167
102
{ACAD_REACTORS
330
1162
102
}
330
1A
100
AcDbEntity
  8
BEMASSUNG
100
AcDbLine
 10
-12.00000000000003
 20
159.5
 30
0.0
 11
-12.00000000000003
 21
161.5
 31
0.0
  0
LINE
  5
1168
102
{ACAD_REACTORS
330
1162
102
}
330
1A
100
AcDbEntity
  8
BEMASSUNG
100
AcDbLine
 10
-12.00000000000003
 20
153.5
 30
0.0
 11
-18.00000000000003
 21
157.5
 31
0.0
  0
LINE
  5
1169
102
{ACAD_REACTORS
330
1162
102
}
330
1A
100
AcDbEntity
  8
BEMASSUNG
100
AcDbLine
 10
-18.00000000000003
 20
157.5
 30
0.0
 11
-12.00000000000003
 21
161.5
 31
0.0
  0
ENDSEC
  0
SECTION
  2
OBJECTS
  0
DICTIONARY
  5
C
330
0
100
AcDbDictionary
281
     1
  3
ACAD_COLOR
350
578
  3
ACAD_GROUP
350
D
  3
ACAD_LAYOUT
350
579
  3
ACAD_MATERIAL
350
577
  3
ACAD_MLINESTYLE
350
E
  3
ACAD_PLOTSETTINGS
350
57A
  3
ACAD_PLOTSTYLENAME
350
575
  3
ACAD_TABLESTYLE
350
70E
  3
ACAD_VISUALSTYLE
350
6FD
  3
AcDbVariableDictionary
350
714
  0
DICTIONARY
  5
7B0
330
2
100
AcDbDictionary
280
     1
281
     1
  3
ACAD_LAYERFILTERS
360
B10
  3
ACLYDICTIONARY
360
B0F
  0
DICTIONARY
  5
1160
330
1A
100
AcDbDictionary
280
     1
281
     1
  3
ACAD_SORTENTS
360
1161
  0
DICTIONARY
  5
578
102
{ACAD_REACTORS
330
C
102
}
330
C
100
AcDbDictionary
281
     1
  0
DICTIONARY
  5
D
102
{ACAD_REACTORS
330
C
102
}
330
C
100
AcDbDictionary
281
     1
  0
DICTIONARY
  5
579
102
{ACAD_REACTORS
330
C
102
}
330
C
100
AcDbDictionary
281
     1
  3
Layout1
350
57C
  3
Model
350
57B
  0
DICTIONARY
  5
577
102
{ACAD_REACTORS
330
C
102
}
330
C
100
AcDbDictionary
281
     1
  3
ByBlock
350
6FB
  3
ByLayer
350
6FA
  3
Global
350
6FC
  0
DICTIONARY
  5
E
102
{ACAD_REACTORS
330
C
102
}
330
C
100
AcDbDictionary
281
     1
  3
STANDARD
350
13
  0
DICTIONARY
  5
57A
102
{ACAD_REACTORS
330
C
102
}
330
C
100
AcDbDictionary
281
     1
  0
ACDBDICTIONARYWDFLT
  5
575
102
{ACAD_REACTORS
330
C
102
}
330
C
100
AcDbDictionary
281
     1
  3
Normal
350
576
100
AcDbDictionaryWithDefault
340
576
  0
DICTIONARY
  5
70E
102
{ACAD_REACTORS
330
C
102
}
330
C
100
AcDbDictionary
281
     1
  3
Standard
350
70F
  0
DICTIONARY
  5
6FD
102
{ACAD_REACTORS
330
C
102
}
330
C
100
AcDbDictionary
281
     1
  3
2dWireframe
350
703
  3
3D Hidden
350
705
  3
3dWireframe
350
704
  3
Basic
350
702
  3
Brighten
350
709
  3
ColorChange
350
70D
  3
Conceptual
350
706
  3
Dim
350
708
  3
Facepattern
350
70C
  3
Flat
350
6FE
  3
FlatWithEdges
350
6FF
  3
Gouraud
350
700
  3
GouraudWithEdges
350
701
  3
Linepattern
350
70B
  3
Realistic
350
707
  3
Thicken
350
70A
  0
DICTIONARY
  5
714
102
{ACAD_REACTORS
330
C
102
}
330
C
100
AcDbDictionary
281
     1
  3
CTABLESTYLE
350
715
  0
DICTIONARY
  5
B10
102
{ACAD_REACTORS
330
7B0
102
}
330
7B0
100
AcDbDictionary
281
     1
  0
DICTIONARY
  5
B0F
102
{ACAD_REACTORS
330
7B0
102
}
330
7B0
100
AcDbDictionary
281
     1
1001
ACAD
1000
<All
  0
SORTENTSTABLE
  5
1161
102
{ACAD_REACTORS
330
1160
102
}
330
1160
100
AcDbSortentsTable
330
1A
331
231
  5
231
331
E18
  5
E18
331
E57
  5
E57
331
E20
  5
E20
331
E28
  5
E28
331
E31
  5
E31
331
E39
  5
E39
331
115B
  5
115D
331
E41
  5
E41
331
234
  5
234
331
E4A
  5
E4A
331
E1B
  5
E1B
331
E52
  5
E52
331
E23
  5
E23
331
E2B
  5
E2B
331
E34
  5
E34
331
1156
  5
1157
331
F32
  5
F32
331
E3C
  5
E3C
331
E44
  5
E44
331
115E
  5
115F
331
EF4
  5
EF4
331
E16
  5
E16
331
E4D
  5
E4D
331
E55
  5
E55
331
E1E
  5
E1E
331
E26
  5
E26
331
F83
  5
F83
331
E2E
  5
E2E
331
E65
  5
E65
331
E3F
  5
E3F
331
E96
  5
E96
331
E47
  5
E47
331
232
  5
232
331
E48
  5
E48
331
E19
  5
E19
331
E50
  5
E50
331
E21
  5
E21
331
E58
  5
E58
331
E29
  5
E29
331
F76
  5
F76
331
E32
  5
E32
331
E89
  5
E89
331
E3A
  5
E3A
331
E42
  5
E42
331
FAF
  5
FAF
331
235
  5
235
331
23D
  5
23D
331
E53
  5
E53
331
E1C
  5
E1C
331
E24
  5
E24
331
E2C
  5
E2C
331
F0A
  5
F0A
331
E35
  5
E35
331
1157
  5
1158
331
22F
  5
22F
331
E3D
  5
E3D
331
115F
  5
1156
331
E45
  5
E45
331
230
  5
230
331
E17
  5
E17
331
E4E
  5
E4E
331
E1F
  5
E1F
331
E56
  5
E56
331
FF3
  5
FF3
331
E27
  5
E27
331
E2F
  5
E2F
331
E30
  5
E30
331
E38
  5
E38
331
E40
  5
E40
331
115A
  5
115B
331
233
  5
233
331
E49
  5
E49
331
E51
  5
E51
331
E1A
  5
E1A
331
E59
  5
E59
331
E22
  5
E22
331
E2A
  5
E2A
331
E33
  5
E33
331
E3B
  5
E3B
331
F90
  5
F90
331
115D
  5
115E
331
E43
  5
E43
331
236
  5
236
331
E15
  5
E15
331
F4A
  5
F4A
331
E1D
  5
E1D
331
E54
  5
E54
331
1059
  5
1059
331
E2D
  5
E2D
331
E3E
  5
E3E
331
1158
  5
115A
331
E46
  5
E46
  0
LAYOUT
  5
57C
102
{ACAD_REACTORS
330
579
102
}
330
579
100
AcDbPlotSettings
  1

  2
HP 2000C
  4

  6

 40
0.0
 41
0.0
 42
0.0
 43
0.0
 44
0.0
 45
0.0
 46
0.0
 47
0.0
 48
0.0
 49
0.0
140
0.0
141
0.0
142
1.0
143
1.0
 70
   688
 72
     0
 73
     0
 74
     5
  7

 75
    16
147
1.0
 76
     0
 77
     2
 78
   300
148
0.0
149
0.0
100
AcDbLayout
  1
Layout1
 70
     1
 71
     1
 10
0.0
 20
0.0
 11
12.0
 21
9.0
 12
0.0
 22
0.0
 32
0.0
 14
1.000000000000000E+20
 24
1.000000000000000E+20
 34
1.000000000000000E+20
 15
-1.000000000000000E+20
 25
-1.000000000000000E+20
 35
-1.000000000000000E+20
146
0.0
 13
0.0
 23
0.0
 33
0.0
 16
1.0
 26
0.0
 36
0.0
 17
0.0
 27
1.0
 37
0.0
 76
     0
330
17
  0
LAYOUT
  5
57B
102
{ACAD_REACTORS
330
579
102
}
330
579
100
AcDbPlotSettings
  1

  2
none_device
  4
Letter_(8.50_x_11.00_Inches)
  6

 40
6.349999904632568
 41
6.349999904632568
 42
6.350006103515625
 43
6.350006103515625
 44
215.8999938964844
 45
279.3999938964844
 46
0.0
 47
0.0
 48
0.0
 49
0.0
140
0.0
141
0.0
142
1.0
143
1.0
 70
 11952
 72
     0
 73
     1
 74
     0
  7

 75
     0
147
1.0
 76
     0
 77
     2
 78
   300
148
-425.45
149
0.0
100
AcDbLayout
  1
Model
 70
     1
 71
     0
 10
0.0
 20
0.0
 11
12.0
 21
9.0
 12
0.0
 22
0.0
 32
0.0
 14
0.0
 24
0.0
 34
0.0
 15
0.0
 25
0.0
 35
0.0
146
0.0
 13
0.0
 23
0.0
 33
0.0
 16
1.0
 26
0.0
 36
0.0
 17
0.0
 27
1.0
 37
0.0
 76
     0
330
1A
331
6F8
  0
MATERIAL
  5
6FB
102
{ACAD_REACTORS
330
577
102
}
330
577
100
AcDbMaterial
  1
ByBlock
  0
MATERIAL
  5
6FA
102
{ACAD_REACTORS
330
577
102
}
330
577
100
AcDbMaterial
  1
ByLayer
  0
MATERIAL
  5
6FC
102
{ACAD_REACTORS
330
577
102
}
330
577
100
AcDbMaterial
  1
Global
  0
MLINESTYLE
  5
13
102
{ACAD_REACTORS
330
E
102
}
330
E
100
AcDbMlineStyle
  2
STANDARD
 70
     0
  3

 62
     0
 51
90.0
 52
90.0
 71
     2
 49
0.5
 62
   256
  6
BYLAYER
 49
-0.5
 62
   256
  6
BYLAYER
  0
ACDBPLACEHOLDER
  5
576
102
{ACAD_REACTORS
330
575
102
}
330
575
  0
TABLESTYLE
  5
70F
102
{ACAD_REACTORS
330
70E
102
}
330
70E
100
AcDbTableStyle
  3
Standard
 70
     0
 71
     0
 40
0.06
 41
0.06
280
     0
281
     0
  7
STANDARD
140
0.18
170
     2
 62
     0
 63
     7
283
     0
 90
      512
 91
        0
  1

274
    -2
284
     1
 64
     0
275
    -2
285
     1
 65
     0
276
    -2
286
     1
 66
     0
277
    -2
287
     1
 67
     0
278
    -2
288
     1
 68
     0
279
    -2
289
     1
 69
     0
  7
STANDARD
140
0.25
170
     5
 62
     0
 63
     7
283
     0
 90
      512
 91
        0
  1

274
    -2
284
     1
 64
     0
275
    -2
285
     1
 65
     0
276
    -2
286
     1
 66
     0
277
    -2
287
     1
 67
     0
278
    -2
288
     1
 68
     0
279
    -2
289
     1
 69
     0
  7
STANDARD
140
0.18
170
     5
 62
     0
 63
     7
283
     0
 90
      512
 91
        0
  1

274
    -2
284
     1
 64
     0
275
    -2
285
     1
 65
     0
276
    -2
286
     1
 66
     0
277
    -2
287
     1
 67
     0
278
    -2
288
     1
 68
     0
279
    -2
289
     1
 69
     0
  0
VISUALSTYLE
  5
703
102
{ACAD_REACTORS
330
6FD
102
}
330
6FD
100
AcDbVisualStyle
  2
2dWireframe
 70
     4
 71
     0
 72
     2
 73
     0
 90
        0
 40
-0.6
 41
-30.0
 62
     5
 63
     7
421
 16777215
 74
     1
 91
        4
 64
     7
 65
   257
 75
     1
175
     1
 42
1.0
 92
        0
 66
   257
 43
1.0
 76
     1
 77
     6
 78
     2
 67
     7
 79
     5
170
     0
171
     0
290
     0
174
     0
 93
        1
 44
0.0
173
     0
291
     0
 45
0.0
  0
VISUALSTYLE
  5
705
102
{ACAD_REACTORS
330
6FD
102
}
330
6FD
100
AcDbVisualStyle
  2
3D Hidden
 70
     6
 71
     1
 72
     2
 73
     2
 90
        0
 40
-0.6
 41
-30.0
 62
     5
 63
     7
421
 16777215
 74
     2
 91
        2
 64
     7
 65
   257
 75
     2
175
     1
 42
40.0
 92
        0
 66
   257
 43
1.0
 76
     1
 77
     6
 78
     2
 67
     7
 79
     3
170
     0
171
     0
290
     0
174
     0
 93
        1
 44
0.0
173
     0
291
     0
 45
0.0
  0
VISUALSTYLE
  5
704
102
{ACAD_REACTORS
330
6FD
102
}
330
6FD
100
AcDbVisualStyle
  2
3dWireframe
 70
     5
 71
     0
 72
     2
 73
     0
 90
        0
 40
-0.6
 41
-30.0
 62
     5
 63
     7
421
 16777215
 74
     1
 91
        4
 64
     7
 65
   257
 75
     1
175
     1
 42
1.0
 92
        0
 66
   257
 43
1.0
 76
     1
 77
     6
 78
     2
 67
     7
 79
     5
170
     0
171
     0
290
     0
174
     0
 93
        1
 44
0.0
173
     0
291
     0
 45
0.0
  0
VISUALSTYLE
  5
702
102
{ACAD_REACTORS
330
6FD
102
}
330
6FD
100
AcDbVisualStyle
  2
Basic
 70
     7
 71
     1
 72
     0
 73
     1
 90
        0
 40
-0.6
 41
-30.0
 62
     5
 63
     7
421
 16777215
 74
     0
 91
        4
 64
     7
 65
   257
 75
     1
175
     1
 42
1.0
 92
        8
 66
     7
 43
1.0
 76
     1
 77
     6
 78
     2
 67
     7
 79
     5
170
     0
171
     0
290
     0
174
     0
 93
        1
 44
0.0
173
     0
291
     1
 45
0.0
  0
VISUALSTYLE
  5
709
102
{ACAD_REACTORS
330
6FD
102
}
330
6FD
100
AcDbVisualStyle
  2
Brighten
 70
    12
 71
     2
 72
     2
 73
     0
 90
        0
 40
-0.6
 41
-30.0
 62
     5
 63
     7
421
 16777215
 74
     1
 91
        4
 64
     7
 65
   257
 75
     1
175
     1
 42
1.0
 92
        8
 66
     7
 43
1.0
 76
     1
 77
     6
 78
     2
 67
     7
 79
     5
170
     0
171
     0
290
     0
174
     0
 93
        1
 44
50.0
173
     0
291
     1
 45
0.0
  0
VISUALSTYLE
  5
70D
102
{ACAD_REACTORS
330
6FD
102
}
330
6FD
100
AcDbVisualStyle
  2
ColorChange
 70
    16
 71
     2
 72
     2
 73
     3
 90
        0
 40
-0.6
 41
-30.0
 62
     5
 63
     8
421
  8421504
 74
     1
 91
        4
 64
     7
 65
   257
 75
     1
175
     1
 42
1.0
 92
        8
 66
     8
424
  8421504
 43
1.0
 76
     1
 77
     6
 78
     2
 67
     7
 79
     5
170
     0
171
     0
290
     0
174
     0
 93
        1
 44
0.0
173
     0
291
     1
 45
0.0
  0
VISUALSTYLE
  5
706
102
{ACAD_REACTORS
330
6FD
102
}
330
6FD
100
AcDbVisualStyle
  2
Conceptual
 70
     9
 71
     3
 72
     2
 73
     0
 90
        0
 40
-0.6
 41
-30.0
 62
     5
 63
     7
421
 16777215
 74
     2
 91
        2
 64
     7
 65
   257
 75
     1
175
     1
 42
40.0
 92
        8
 66
     7
 43
1.0
 76
     1
 77
     6
 78
     2
 67
     7
 79
     3
170
     0
171
     0
290
     0
174
     0
 93
        1
 44
0.0
173
     0
291
     0
 45
0.0
  0
VISUALSTYLE
  5
708
102
{ACAD_REACTORS
330
6FD
102
}
330
6FD
100
AcDbVisualStyle
  2
Dim
 70
    11
 71
     2
 72
     2
 73
     0
 90
        0
 40
-0.6
 41
-30.0
 62
     5
 63
     7
421
 16777215
 74
     1
 91
        4
 64
     7
 65
   257
 75
     1
175
     1
 42
1.0
 92
        8
 66
     7
 43
1.0
 76
     1
 77
     6
 78
     2
 67
     7
 79
     5
170
     0
171
     0
290
     0
174
     0
 93
        1
 44
-50.0
173
     0
291
     1
 45
0.0
  0
VISUALSTYLE
  5
70C
102
{ACAD_REACTORS
330
6FD
102
}
330
6FD
100
AcDbVisualStyle
  2
Facepattern
 70
    15
 71
     2
 72
     2
 73
     0
 90
        0
 40
-0.6
 41
-30.0
 62
     5
 63
     7
421
 16777215
 74
     1
 91
        4
 64
     7
 65
   257
 75
     1
175
     1
 42
1.0
 92
        8
 66
     7
 43
1.0
 76
     1
 77
     6
 78
     2
 67
     7
 79
     5
170
     0
171
     0
290
     0
174
     0
 93
        1
 44
0.0
173
     0
291
     1
 45
0.0
  0
VISUALSTYLE
  5
6FE
102
{ACAD_REACTORS
330
6FD
102
}
330
6FD
100
AcDbVisualStyle
  2
Flat
 70
     0
 71
     2
 72
     1
 73
     1
 90
        2
 40
-0.6
 41
30.0
 62
     5
 63
     7
421
 16777215
 74
     0
 91
        4
 64
     7
 65
   257
 75
     1
175
     1
 42
1.0
 92
        8
 66
     7
 43
1.0
 76
     1
 77
     6
 78
     2
 67
     7
 79
     5
170
     0
171
     0
290
     0
174
     0
 93
       13
 44
0.0
173
     0
291
     1
 45
0.0
  0
VISUALSTYLE
  5
6FF
102
{ACAD_REACTORS
330
6FD
102
}
330
6FD
100
AcDbVisualStyle
  2
FlatWithEdges
 70
     1
 71
     2
 72
     1
 73
     1
 90
        2
 40
-0.6
 41
30.0
 62
     5
 63
     7
421
 16777215
 74
     1
 91
        4
 64
     7
 65
   257
 75
     1
175
     1
 42
1.0
 92
        0
 66
   257
 43
1.0
 76
     1
 77
     6
 78
     2
 67
     7
 79
     5
170
     0
171
     0
290
     0
174
     0
 93
       13
 44
0.0
173
     0
291
     1
 45
0.0
  0
VISUALSTYLE
  5
700
102
{ACAD_REACTORS
330
6FD
102
}
330
6FD
100
AcDbVisualStyle
  2
Gouraud
 70
     2
 71
     2
 72
     2
 73
     1
 90
        2
 40
-0.6
 41
30.0
 62
     5
 63
     7
421
 16777215
 74
     0
 91
        4
 64
     7
 65
   257
 75
     1
175
     1
 42
1.0
 92
        0
 66
     7
 43
1.0
 76
     1
 77
     6
 78
     2
 67
     7
 79
     5
170
     0
171
     0
290
     0
174
     0
 93
       13
 44
0.0
173
     0
291
     1
 45
0.0
  0
VISUALSTYLE
  5
701
102
{ACAD_REACTORS
330
6FD
102
}
330
6FD
100
AcDbVisualStyle
  2
GouraudWithEdges
 70
     3
 71
     2
 72
     2
 73
     1
 90
        2
 40
-0.6
 41
30.0
 62
     5
 63
     7
421
 16777215
 74
     1
 91
        4
 64
     7
 65
   257
 75
     1
175
     1
 42
1.0
 92
        0
 66
   257
 43
1.0
 76
     1
 77
     6
 78
     2
 67
     7
 79
     5
170
     0
171
     0
290
     0
174
     0
 93
       13
 44
0.0
173
     0
291
     1
 45
0.0
  0
VISUALSTYLE
  5
70B
102
{ACAD_REACTORS
330
6FD
102
}
330
6FD
100
AcDbVisualStyle
  2
Linepattern
 70
    14
 71
     2
 72
     2
 73
     0
 90
        0
 40
-0.6
 41
-30.0
 62
     5
 63
     7
421
 16777215
 74
     1
 91
        4
 64
     7
 65
   257
 75
     7
175
     7
 42
1.0
 92
        8
 66
     7
 43
1.0
 76
     1
 77
     6
 78
     2
 67
     7
 79
     5
170
     0
171
     0
290
     0
174
     0
 93
        1
 44
0.0
173
     0
291
     1
 45
0.0
  0
VISUALSTYLE
  5
707
102
{ACAD_REACTORS
330
6FD
102
}
330
6FD
100
AcDbVisualStyle
  2
Realistic
 70
     8
 71
     2
 72
     2
 73
     0
 90
        0
 40
-0.6
 41
-30.0
 62
     5
 63
     7
421
 16777215
 74
     1
 91
        0
 64
     7
 65
   257
 75
     1
175
     1
 42
1.0
 92
        8
 66
     8
424
  7895160
 43
1.0
 76
     1
 77
     6
 78
     2
 67
     7
 79
     5
170
     0
171
     0
290
     0
174
     0
 93
       13
 44
0.0
173
     0
291
     0
 45
0.0
  0
VISUALSTYLE
  5
70A
102
{ACAD_REACTORS
330
6FD
102
}
330
6FD
100
AcDbVisualStyle
  2
Thicken
 70
    13
 71
     2
 72
     2
 73
     0
 90
        0
 40
-0.6
 41
-30.0
 62
     5
 63
     7
421
 16777215
 74
     1
 91
        4
 64
     7
 65
   257
 75
     1
175
     1
 42
1.0
 92
       12
 66
     7
 43
1.0
 76
     1
 77
     6
 78
     2
 67
     7
 79
     5
170
     0
171
     0
290
     0
174
     0
 93
        1
 44
0.0
173
     0
291
     1
 45
0.0
  0
DICTIONARYVAR
  5
715
102
{ACAD_REACTORS
330
714
102
}
330
714
100
DictionaryVariables
280
     0
  1
STANDARD
  0
ENDSEC
  0
EOF
